<?xml version="1.0" standalone="no"?>
<!DOCTYPE svg PUBLIC "-//W3C//DTD SVG 1.1//EN" "http://www.w3.org/Graphics/SVG/1.1/DTD/svg11.dtd">
<svg xmlns="http://www.w3.org/2000/svg">
<metadata>Generated by Fontastic.me</metadata>
<defs>
<font id="adventure-tours" horiz-adv-x="512">
<font-face font-family="adventure-tours" units-per-em="512" ascent="480" descent="-32"/>
<missing-glyph horiz-adv-x="512" />

<glyph glyph-name="24-hours" unicode="&#97;" d="M508 271c-7 7-17 7-23 0l-13-15 0 0c0 0 0 0 0 0 0 130-106 236-236 236-130 0-236-106-236-236 0-130 106-236 236-236 82 0 157 42 201 112 4 7 2 17-6 22-7 4-17 2-22-6-37-60-102-96-173-96-112 0-204 92-204 204 0 112 92 204 204 204 112 0 204-91 204-204l-12 15 0 0c-7 7-17 7-23 0-6-6-6-16 0-22 0 0 0 0 0 0l40-43c0 0 0 0 0 0 5-5 14-6 20-2 1 0 2 1 3 2l40 43c6 6 6 16 0 22z m-334-4c-3-4-10-11-19-21l-34-34 0-24 100 0 0 31-52 0 0 0c15 14 25 23 30 28 4 5 8 10 11 14 3 5 5 9 6 14 2 4 2 9 2 15 0 7-2 13-6 19-3 6-9 10-16 13-7 3-15 5-24 5-7 0-13-1-19-2-5-2-10-4-15-6-5-3-11-8-18-14l20-24c6 5 11 9 15 11 5 3 9 4 13 4 4 0 8-1 10-3 2-2 3-5 3-9 0-3 0-5-1-8-1-3-3-6-6-9z m157-79l0 27 15 0 0 27-15 0 0 83-34 0-57-83 0-27 55 0 0-27z m-59 54l15 23c3 4 5 8 7 13l1 0c0 0 0-3 0-8 0-5 0-9 0-12l0-16z"/>
<glyph glyph-name="acropolis" unicode="&#99;" d="M496 344c9 0 16 7 16 16l0 32c0 7-4 13-11 15l-94 32c-3 1-6 1-9 0l-51-14-82 60c-4 3-9 4-14 2l-240-80c-7-2-11-8-11-15l0-32c0-9 7-16 16-16l40 0 0-192-8 0c-9 0-16-7-16-16l0-32-16 0c-9 0-16-7-16-16l0-48c0-9 7-16 16-16l480 0c9 0 16 7 16 16l0 48c0 9-7 16-16 16l-16 0 0 32c0 9-7 16-16 16l-8 0 0 192z m-464 36l221 74 82-59c3-3 8-4 13-2l53 14 79-27 0-4-448 0z m184-228l0 192 80 0 0-192z m-112 192l64 0 0-192-64 0z m376-288l-448 0 0 16 448 0z m-416 48l0 16 384 0 0-16z m344 48l-64 0 0 192 64 0z"/>
<glyph glyph-name="american-flag" unicode="&#100;" d="M408 480l-288 0 0 16c0 9-7 16-16 16-9 0-16-7-16-16l0-480c0-9 7-16 16-16 9 0 16 7 16 16l0 240 288 0c9 0 16 7 16 16l0 192c0 9-7 16-16 16z m-16-96l-176 0 0 16 176 0z m-272-32l272 0 0-16-272 0z m272 80l-176 0 0 16 176 0z m0-144l-272 0 0 16 272 0z"/>
<glyph glyph-name="archery" unicode="&#101;" d="M483 264l-47 30c-7 4-12 1-12-7l0-15-56 0c-7 134-94 240-200 240-7 0-12-4-15-10l0 0-79-198-41 0c-8 0-11-6-7-13l14-22c5-7 5-19 0-26l-14-22c-4-7-1-13 7-13l41 0 79-198 0 0c3-6 8-10 15-10 106 0 193 106 200 240l56 0 0-15c0-8 6-11 12-7l47 30c7 4 7 12 0 16z m-147 8l-221 0-12 18 76 190c83-8 151-97 157-208z m-157-240l-76 190 12 18 221 0c-6-111-74-200-157-208z"/>
<glyph glyph-name="alarm" unicode="&#102;" d="M432 176c-18 0-32 14-32 32l0 128c0 56-42 103-96 111l0 17c0 26-22 48-48 48-26 0-48-22-48-48l0-17c-54-8-96-55-96-111l0-128c0 0 0 0 0 0 0-18-14-32-32-32 0 0 0 0 0 0-26 0-48-22-48-48 0-26 22-48 48-48l96 0c0-44 36-80 80-80 44 0 80 36 80 80l96 0c26 0 48 22 48 48 0 26-22 48-48 48z m-176-144c-26 0-48 22-48 48l96 0c0-26-22-48-48-48z m176 80l-352 0c-9 0-16 7-16 16 0 9 7 16 16 16 0 0 0 0 0 0 35 0 64 29 64 64 0 0 0 0 0 0l0 128c0 44 36 80 80 80 9 0 16 7 16 16l0 32c0 9 7 16 16 16 9 0 16-7 16-16l0-32c0-9 7-16 16-16 44 0 80-36 80-80l0-128c0-35 29-64 64-64 9 0 16-7 16-16 0-9-7-16-16-16z"/>
<glyph glyph-name="alarm-clock" unicode="&#103;" d="M472 248c0 43-13 84-35 118 21 15 35 39 35 66 0 44-36 80-80 80-36 0-66-24-76-56-19 5-39 8-60 8-21 0-41-3-60-8-10 32-40 56-76 56-44 0-80-36-80-80 0-27 14-51 35-66-22-34-35-75-35-118 0-69 32-130 83-170l-40-52c-5-7-4-18 3-23 3-2 7-3 10-3 5 0 10 2 13 6l40 54c32-18 68-28 107-28 39 0 75 10 107 28l40-54c3-4 8-6 13-6 3 0 7 1 10 3 7 5 8 16 3 23l-40 52c51 40 83 101 83 170z m-126 196c5 21 24 36 46 36 26 0 48-22 48-48 0-17-9-32-23-41 2-1 3-2 3-3-20 24-46 44-75 57 0 0 0 0 1-1z m-274-12c0 26 22 48 48 48 22 0 41-15 46-36 1 1 1 1 1 1-29-13-55-33-75-57 0 1 1 2 3 3-14 9-23 24-23 41z m0-184c0 101 83 184 184 184 101 0 184-83 184-184 0-101-83-184-184-184-101 0-184 83-184 184z m200 7l0 89c0 9-7 16-16 16-9 0-16-7-16-16l0-96c0-4 2-8 5-11l96-96c3-3 7-5 11-5 4 0 8 2 11 5 7 6 7 16 0 22z"/>
<glyph glyph-name="ambulance" unicode="&#104;" d="M208 300l-40 0 0 40c0 0 0 0 0 0 0 9-7 16-16 16-9 0-16-7-16-16l0-40-40 0c-9 0-16-7-16-16 0-9 7-16 16-16 0 0 0 0 0 0l40 0 0-40c0-9 7-16 16-16 9 0 16 7 16 16 0 0 0 0 0 0l0 40 40 0c0 0 0 0 0 0 9 0 16 7 16 16 0 9-7 16-16 16z m288-40l-25 0-83 98c-3 4-7 6-12 6l-72 0 0 8c0 26-22 48-48 48l-64 0c0 22-18 40-40 40-22 0-40-18-40-40l-64 0c-26 0-48-22-48-48l0-224c0-26 22-48 48-48l26 0c7-28 32-48 62-48 30 0 55 20 62 48l116 0c7-28 32-48 62-48 30 0 55 20 62 48l26 0c26 0 48 22 48 48l0 96c0 9-7 16-16 16z m-127 72l61-72-126 0 0 72z m-217 104c9 0 16-7 16-16l-32 0c0 9 7 16 16 16z m-16-352c-18 0-32 14-32 32 0 18 14 32 32 32 18 0 32-14 32-32 0-18-14-32-32-32z m240 0c-18 0-32 14-32 32 0 18 14 32 32 32 18 0 32-14 32-32 0-18-14-32-32-32z m88 48l-26 0c-7 28-32 48-62 48-30 0-55-20-62-48l-116 0c-7 28-32 48-62 48-30 0-55-20-62-48l-26 0c-9 0-16 7-16 16l0 224c0 9 7 16 16 16l208 0c9 0 16-7 16-16l0-128c0-9 7-16 16-16l192 0 0-80c0-9-7-16-16-16z"/>
<glyph glyph-name="angel" unicode="&#105;" d="M272 240c0-9-7-16-16-16-9 0-16 7-16 16 0 9 7 16 16 16 9 0 16-7 16-16z m0-64c0-9-7-16-16-16-9 0-16 7-16 16 0 9 7 16 16 16 9 0 16-7 16-16z m0-64c0-9-7-16-16-16-9 0-16 7-16 16 0 9 7 16 16 16 9 0 16-7 16-16z m-80 368l128 0c9 0 16 7 16 16 0 9-7 16-16 16l-128 0c-9 0-16-7-16-16 0-9 7-16 16-16z m56-96c0-9-7-16-16-16-9 0-16 7-16 16 0 9 7 16 16 16 9 0 16-7 16-16z m48 0c0-9-7-16-16-16-9 0-16 7-16 16 0 9 7 16 16 16 9 0 16-7 16-16z m152-134c24 64 20 151-7 182-10 11-19 16-30 16-24 0-36-26-48-54-7-14-14-30-22-40 2 7 3 15 3 22 0 49-40 88-88 88-49 0-88-39-88-88 0-7 1-15 3-22-8 10-15 26-22 40-12 28-24 54-48 54-11 0-20-5-30-16-28-31-31-118-7-182 14-38 34-65 57-79-19-58-30-110-33-123-1-8 3-15 10-18 4-1 84-30 158-30 74 0 154 29 157 30 8 3 12 10 11 18-3 13-14 65-33 123 23 14 43 41 57 79z m-192 182c31 0 56-25 56-56 0-31-25-56-56-56-31 0-56 25-56 56 0 31 25 56 56 56z m-162-170c-21 55-17 129 1 148 3 4 5 5 6 6 5-4 14-23 19-35 9-20 18-40 32-53 12-12 22-19 31-24-20-28-37-65-51-102-15 11-28 32-38 60z m162-230c-51 0-108 16-133 24 5 24 18 77 37 129 18 51 38 89 58 112 11-6 24-9 38-9 14 0 27 3 38 9 20-23 40-60 58-112 19-52 32-105 37-129-25-8-82-24-133-24z m124 170c-14 37-31 74-51 102 9 5 19 12 31 24 14 13 23 33 32 53 5 12 14 31 19 35 1-1 3-2 6-6 18-19 22-93 1-148-10-28-23-49-38-60z"/>
<glyph glyph-name="apple" unicode="&#106;" d="M462 397c-20 23-50 35-86 35-19 0-45-9-70-18-7-3-16-5-23-8 15 46 42 66 46 69 7 5 9 15 4 22-4 7-14 9-22 4-2-1-6-4-12-9-14 13-32 20-51 20-23 0-45-11-60-30-5-6-5-14 0-20 15-19 37-30 60-30 4 0 7 0 10 1-4-10-7-20-10-32-11 2-28 8-43 13-24 9-50 18-69 18-34 0-62-12-83-36-23-26-33-64-28-102 5-30 15-68 25-106 10-34 19-69 23-94 8-54 52-94 103-94 24 0 59 10 80 26 22-15 57-26 80-26 48 0 86 38 96 93 4 25 15 59 26 93 12 38 25 77 29 108 6 40-3 78-25 103z m-239 75c15 10 35 10 50 0-15-10-35-10-50 0z m232-174c-3-28-16-66-28-103-12-35-23-69-27-96-5-31-25-67-64-67-22 0-57 14-68 26-3 4-7 6-12 6 0 0 0 0 0 0-5 0-9-2-12-6-10-13-45-26-68-26-34 0-66 29-71 66-4 28-14 62-24 99-10 36-20 74-24 101-4 29 4 58 20 77 15 17 35 25 59 25 14 0 38-8 59-16 17-6 33-12 47-14-1-8-1-16-2-24-9 3-17 7-23 11-7 5-17 3-22-4-5-7-3-17 4-22 17-12 37-19 57-19 20 0 40 7 57 19 8 5 9 15 4 22-5 7-15 9-22 4-6-4-13-8-23-11 1 9 1 17 2 25 13 3 28 8 43 13 21 7 46 16 59 16 27 0 48-8 61-24 16-18 23-47 18-78z"/>
<glyph glyph-name="arena" unicode="&#107;" d="M464 328l-416 0c-26 0-48-22-48-48l0-208c0-26 22-48 48-48l416 0c26 0 48 22 48 48l0 208c0 26-22 48-48 48z m-160-272l-96 0 0 64c0 27 21 48 48 48 27 0 48-21 48-48z m176 16c0-9-7-16-16-16l-128 0 0 64c0 44-36 80-80 80-44 0-80-36-80-80l0-64-128 0c-9 0-16 7-16 16l0 208c0 9 7 16 16 16l416 0c9 0 16-7 16-16z m7 382l-64 32c-5 3-11 3-15 0-5-3-8-8-8-14l0-96-128 0 0 22 55 28c6 2 9 8 9 14 0 6-3 12-9 14l-64 32c-5 3-11 3-15 0-5-3-8-8-8-14l0-96-128 0 0 22 55 28c6 2 9 8 9 14 0 6-3 12-9 14l-64 32c-5 3-11 3-15 0-5-3-8-8-8-14l0-112c0-9 7-16 16-16 0 0 0 0 0 0l320 0c0 0 0 0 0 0 9 0 16 7 16 16 0 0 0 0 0 0l0 38 55 28c6 2 9 8 9 14 0 6-3 12-9 14z m-215-20l0 12 12-6z m-160 0l0 12 12-6z m320 0l0 12 12-6z"/>
<glyph glyph-name="atom" unicode="&#108;" d="M289 256c0-18-14-32-32-32-17 0-32 14-32 32 0 18 15 32 32 32 18 0 32-14 32-32z m190 128c-9 16-30 34-78 34-16 0-34-2-54-6-20 61-52 100-90 100-38 0-70-39-90-100-19 4-37 6-53 6-49 0-69-18-78-34-19-33-2-80 41-128-43-48-60-95-41-128 9-16 29-34 78-34 16 0 34 2 53 6 20-61 53-100 90-100 38 0 70 39 90 100 20-4 38-6 54-6 48 0 69 18 78 34 19 33 2 80-42 128 44 48 61 95 42 128z m-78 2c26 0 44-6 50-18 11-18-3-52-36-89-14 13-31 27-49 40-2 22-6 43-10 62 16 3 31 5 45 5z m-104-199c-13-8-26-15-40-21-13 6-26 13-40 21-13 8-26 16-38 24-1 14-2 29-2 45 0 16 1 31 2 45 12 8 25 16 38 24 14 8 27 15 40 21 14-6 27-13 40-21 14-8 27-16 39-24 1-14 1-29 1-45 0-16 0-31-1-45-12-8-25-16-39-24z m34-18c-2-10-4-20-6-30-10 3-19 6-29 10 6 3 11 7 17 10 6 3 12 7 18 10z m-112-20c-10-4-20-7-29-10-3 10-4 20-6 30 6-3 11-7 17-10 6-3 12-7 18-10z m-73 87c-9 6-17 13-24 20 7 7 15 14 24 20-1-6-1-13-1-20 0-7 0-14 1-20z m38 107c2 10 3 20 6 30 9-3 19-6 29-10-6-3-12-7-18-10-6-3-11-7-17-10z m112 20c10 4 19 7 29 10 2-10 4-20 6-30-6 3-12 7-18 10-6 3-11 7-17 10z m73-87c8-6 16-13 23-20-7-7-15-14-23-20 0 6 0 13 0 20 0 7 0 14 0 20z m-112 204c21 0 44-28 59-76-19-6-39-14-59-22-20 8-40 16-59 22 16 48 38 76 59 76z m-194-112c7 12 25 18 51 18 13 0 28-2 45-5-5-19-8-40-11-62-18-13-34-27-48-40-34 37-47 71-37 89z m51-242c-26 0-44 6-51 18-10 18 3 52 37 89 14-13 30-27 48-40 3-22 6-43 11-62-17-3-32-5-45-5z m143-94c-21 0-43 28-59 76 19 6 39 14 59 22 20-8 40-16 59-22-15-48-38-76-59-76z m194 112c-6-12-24-18-50-18-14 0-29 2-45 5 4 19 8 40 10 62 18 13 35 27 49 40 33-37 47-71 36-89z"/>
<glyph glyph-name="backpack" unicode="&#109;" d="M464 192c0 4-2 8-4 11l-44 58 0 139c0 0 0 0 0 0 0 0 0 0 0 1 0 26-22 47-48 47l-34 0c-7 36-39 64-78 64-39 0-71-28-78-64l-34 0c-26 0-48-21-48-47 0-1 0-1 0-1 0 0 0 0 0 0l0-139-45-59c0 0 0-1 0-1-1-1-1-2-2-3 0 0 0-1 0-1 0-1-1-2-1-3 0 0 0-1 0-1 0 0 0-1 0-1l0-80c0-30 20-55 48-62l0-2c0-26 22-48 48-48l224 0c26 0 48 22 48 48l0 2c28 7 48 32 48 62l0 78c0 1 0 1 0 2z m-208 288c21 0 39-13 45-32l-90 0c6 19 24 32 45 32z m-112-64l224 0c8 0 15-6 16-14l-15-36c-4-10-21-22-41-27-2 7-8 13-16 13-9 0-16-7-16-16l-80 0c0 9-7 16-16 16-8 0-14-6-16-13-20 5-37 17-41 27l-15 36c1 8 8 14 16 14z m-64-304l0 64 16 0 0-92c-10 6-16 16-16 28z m304-64c0-9-7-16-16-16l-224 0c-9 0-16 7-16 16l0 285c14-13 34-22 56-27l0-2c0-9 7-16 16-16 9 0 16 7 16 16l80 0c0-9 7-16 16-16 9 0 16 7 16 16l0 2c22 5 42 14 56 27z m32 36l0 92 16 0 0-64c0-12-6-22-16-28z m-96 140l-128 0c-26 0-48-22-48-48l0-64c0-26 22-48 48-48l128 0c26 0 48 22 48 48l0 64c0 26-22 48-48 48z m16-112c0-9-7-16-16-16l-128 0c-9 0-16 7-16 16l0 64c0 9 7 16 16 16l128 0c9 0 16-7 16-16z m-32 64l-96 0c-9 0-16-7-16-16 0-9 7-16 16-16l96 0c9 0 16 7 16 16 0 9-7 16-16 16z"/>
<glyph glyph-name="bag" unicode="&#110;" d="M488 284c0 26-22 48-48 48l-96 0 0 64c0 49-39 88-88 88-49 0-88-39-88-88l0-64-96 0c-26 0-48-22-48-48l-24-208c0-26 22-48 48-48l416 0c26 0 48 22 48 48z m-296 112c0 35 29 64 64 64 35 0 64-29 64-64l0-64-128 0z m272-336l-416 0c-9 0-16 7-16 16l24 208c0 9 7 16 16 16l96 0 0-27c-9-4-16-14-16-25 0-15 13-28 28-28 15 0 28 13 28 28 0 11-7 21-16 25l0 27 128 0 0-27c-9-4-16-14-16-25 0-15 13-28 28-28 15 0 28 13 28 28 0 11-7 21-16 25l0 27 96 0c9 0 16-7 16-16l24-208c0-9-7-16-16-16z"/>
<glyph glyph-name="basketball" unicode="&#111;" d="M442 80c43 46 70 108 70 176 0 68-27 130-70 176l0 0c-47 49-113 80-186 80-141 0-256-115-256-256 0-141 115-256 256-256 73 0 139 31 186 80z m-170 273c55 3 106 24 146 57 35-36 58-85 61-138l-207 0z m0 32l0 94c46-3 88-20 122-47-34-27-76-44-122-47z m-32 0c-46 3-88 20-122 47 34 27 76 44 122 47z m-146 25c40-33 91-54 146-57l0-81-207 0c3 53 26 102 61 138z m146-170l0-81c-55-3-106-24-146-57-35 36-58 85-61 138z m0-113l0-94c-46 3-88 20-122 47 34 27 76 44 122 47z m32 0c46-3 88-20 122-47-34-27-76-44-122-47z m0 32l0 81 207 0c-3-53-26-102-61-138-40 33-91 54-146 57z"/>
<glyph glyph-name="baseball" unicode="&#112;" d="M328 112c-31 0-56-25-56-56 0-31 25-56 56-56 31 0 56 25 56 56 0 31-25 56-56 56z m0-80c-13 0-24 11-24 24 0 13 11 24 24 24 13 0 24-11 24-24 0-13-11-24-24-24z m-152 480c-26 0-48-22-48-48l0-208c0-23 9-47 17-69 7-21 15-42 15-59l0-96c-9 0-16-7-16-16 0-9 7-16 16-16l32 0c9 0 16 7 16 16 0 9-7 16-16 16l0 96c0 17 8 38 15 59 8 22 17 46 17 69l0 208c0 26-22 48-48 48z m0-32c9 0 16-7 16-16l0-192-32 0 0 192c0 9 7 16 16 16z m-1-283c-5 15-10 30-13 43l28 0c-3-13-8-28-13-43 0 0-1-1-1-2 0 1-1 2-1 2z"/>
<glyph glyph-name="barbell" unicode="&#113;" d="M496 272l-16 0 0 16c0 0 0 0 0 0 0 9-7 16-16 16-9 0-16-7-16-16l0-16-16 0 0 48c0 0 0 0 0 0 0 9-7 16-16 16-9 0-16-7-16-16l0-48-16 0 0 80c0 0 0 0 0 0 0 9-7 16-16 16-9 0-16-7-16-16l0-80-192 0 0 80c0 0 0 0 0 0 0 9-7 16-16 16-9 0-16-7-16-16l0-80-16 0 0 48c0 0 0 0 0 0 0 9-7 16-16 16-9 0-16-7-16-16l0-48-16 0 0 16c0 0 0 0 0 0 0 9-7 16-16 16-9 0-16-7-16-16l0-16-16 0c-9 0-16-7-16-16 0-9 7-16 16-16l16 0 0-16c0-9 7-16 16-16 9 0 16 7 16 16 0 0 0 0 0 0l0 16 16 0 0-48c0-9 7-16 16-16 9 0 16 7 16 16 0 0 0 0 0 0l0 48 16 0 0-80c0-9 7-16 16-16 9 0 16 7 16 16 0 0 0 0 0 0l0 80 192 0 0-80c0-9 7-16 16-16 9 0 16 7 16 16 0 0 0 0 0 0l0 80 16 0 0-48c0-9 7-16 16-16 9 0 16 7 16 16 0 0 0 0 0 0l0 48 16 0 0-16c0-9 7-16 16-16 9 0 16 7 16 16 0 0 0 0 0 0l0 16 16 0c9 0 16 7 16 16 0 9-7 16-16 16z"/>
<glyph glyph-name="bar-graph-growth" unicode="&#114;" d="M496 358l-120 0c-9 0-16-7-16-16l0-112-88 0 0 48c0 9-7 16-16 16l-120 0c-9 0-16-7-16-16l0-112-104 0c-9 0-16-7-16-16l0-128c0-9 7-16 16-16l480 0c9 0 16 7 16 16l0 320c0 9-7 16-16 16z m-376-320l-88 0 0 96 88 0z m120 176l0-176-88 0 0 224 88 0z m120-176l-88 0 0 160 88 0z m120 0l-88 0 0 288 88 0z m-464 232c3 0 6 1 9 3l182 121 71-57c6-4 13-4 19 0l184 125 0-1 13-20 18 60-62 7 13-20-174-118-71 56c-5 5-13 5-19 1l-192-128c-7-5-9-15-4-22 3-5 8-7 13-7z"/>
<glyph glyph-name="bar-graph-drop" unicode="&#115;" d="M496 162l-104 0 0 112c0 9-7 16-16 16l-120 0c-9 0-16-7-16-16l0-48-88 0 0 112c0 9-7 16-16 16l-120 0c-9 0-16-7-16-16l0-320c0-9 7-16 16-16l480 0c9 0 16 7 16 16l0 128c0 9-7 16-16 16z m-464 160l88 0 0-288-88 0z m120-128l88 0 0-160-88 0z m120 16l0 48 88 0 0-224-88 0z m208-176l-88 0 0 96 88 0z m-473 449l192-128c6-4 14-4 19 1l71 56 174-118-13-20 62 6-18 60-13-20 0 0-184 125c-6 4-13 4-19-1l-71-56-182 121c-7 5-17 3-22-4-5-7-3-17 4-22z"/>
<glyph glyph-name="bar-graph-2" unicode="&#116;" d="M496 32l-464 0 0 464c0 9-7 16-16 16-9 0-16-7-16-16l0-480c0-9 7-16 16-16l480 0c9 0 16 7 16 16 0 9-7 16-16 16z m-432 16l112 0c9 0 16 7 16 16l0 144c0 9-7 16-16 16l-112 0c-9 0-16-7-16-16l0-144c0-9 7-16 16-16z m16 144l80 0 0-112-80 0z m144-144l112 0c9 0 16 7 16 16l0 336c0 9-7 16-16 16l-112 0c-9 0-16-7-16-16l0-336c0-9 7-16 16-16z m16 336l80 0 0-304-80 0z m256-64l-112 0c-9 0-16-7-16-16l0-240c0-9 7-16 16-16l112 0c9 0 16 7 16 16l0 240c0 9-7 16-16 16z m-16-240l-80 0 0 208 80 0z"/>
<glyph glyph-name="bar-graph-1" unicode="&#117;" d="M496 376l-144 0 0 96c0 9-7 16-16 16l-160 0c-9 0-16-7-16-16l0-224-144 0c-9 0-16-7-16-16l0-192c0-9 7-16 16-16l480 0c9 0 16 7 16 16l0 320c0 9-7 16-16 16z m-464-160l128 0 0-160-128 0z m160 16l0 224 128 0 0-400-128 0z m288-176l-128 0 0 288 128 0z"/>
<glyph glyph-name="banknote" unicode="&#118;" d="M464 416l-416 0c-26 0-48-22-48-48l0-224c0-26 22-48 48-48l416 0c26 0 48 22 48 48l0 224c0 26-22 48-48 48z m-48-288l-320 0c-4 33-31 60-64 64l0 128c33 4 60 31 64 64l320 0c4-33 31-60 64-64l0-128c-33-4-60-31-64-64z m64 240l0-15c-16 3-28 15-31 31l15 0c9 0 16-7 16-16z m-432 16l15 0c-3-16-15-28-31-31l0 15c0 9 7 16 16 16z m-16-240l0 15c16-3 28-15 31-31l-15 0c-9 0-16 7-16 16z m432-16l-15 0c3 16 15 28 31 31l0-15c0-9-7-16-16-16z m-208 208c-44 0-80-36-80-80 0-44 36-80 80-80 44 0 80 36 80 80 0 44-36 80-80 80z m0-128c-27 0-48 21-48 48 0 27 21 48 48 48 27 0 48-21 48-48 0-26-21-48-48-48z m-144 48c0-9-7-16-16-16-9 0-16 7-16 16 0 9 7 16 16 16 9 0 16-7 16-16z m320 0c0-9-7-16-16-16-9 0-16 7-16 16 0 9 7 16 16 16 9 0 16-7 16-16z"/>
<glyph glyph-name="bank" unicode="&#119;" d="M496 48l-480 0c-9 0-16-7-16-16 0-9 7-16 16-16l480 0c9 0 16 7 16 16 0 9-7 16-16 16z m-480 272l80 0 0-224-40 0c-9 0-16-7-16-16 0-9 7-16 16-16l400 0c9 0 16 7 16 16 0 9-7 16-16 16l-40 0 0 224 80 0c0 0 0 0 0 0 9 0 16 7 16 16 0 6-4 12-9 14l-239 144c-5 3-11 3-16 0l-240-144c-6-4-9-11-7-18 2-7 8-12 15-12z m112 0l64 0 0-224-64 0z m160 0l0-224-64 0 0 224z m96-224l-64 0 0 224 64 0z m-128 365l182-109-364 0z m24-61c0-13-11-24-24-24-13 0-24 11-24 24 0 13 11 24 24 24 13 0 24-11 24-24z"/>
<glyph glyph-name="bank-card" unicode="&#120;" d="M464 440l-416 0c-26 0-48-22-48-48l0-272c0-26 22-48 48-48l416 0c26 0 48 22 48 48l0 272c0 26-22 48-48 48z m-416-32l416 0c9 0 16-7 16-16l0-32-448 0 0 32c0 9 7 16 16 16z m416-304l-416 0c-9 0-16 7-16 16l0 160 448 0 0-160c0-9-7-16-16-16z m-184 64l-200 0c-9 0-16-7-16-16 0-9 7-16 16-16l200 0c9 0 16 7 16 16 0 9-7 16-16 16z m152 0l-88 0c-9 0-16-7-16-16 0-9 7-16 16-16l88 0c9 0 16 7 16 16 0 9-7 16-16 16z"/>
<glyph glyph-name="bank-1" unicode="&#121;" d="M496 48l-480 0c-9 0-16-7-16-16 0-9 7-16 16-16l480 0c9 0 16 7 16 16 0 9-7 16-16 16z m-480 272l80 0 0-224-40 0c-9 0-16-7-16-16 0-9 7-16 16-16l400 0c9 0 16 7 16 16 0 9-7 16-16 16l-40 0 0 224 80 0c0 0 0 0 0 0 9 0 16 7 16 16 0 6-4 12-9 14l-239 144c-5 3-11 3-16 0l-240-144c-6-4-9-11-7-18 1-7 8-12 15-12z m112 0l64 0 0-224-64 0z m160 0l0-224-64 0 0 224z m96-224l-64 0 0 224 64 0z m-128 365l182-109-364 0z m24-61c0-13-11-24-24-24-13 0-24 11-24 24 0 13 11 24 24 24 13 0 24-11 24-24z"/>
<glyph glyph-name="balloon" unicode="&#122;" d="M192 464c-22 0-40-18-40-40 0-4 4-8 8-8 4 0 8 4 8 8 0 13 11 24 24 24 4 0 8 4 8 8 0 4-4 8-8 8z m128 0c-22 0-40-18-40-40 0-4 4-8 8-8 4 0 8 4 8 8 0 13 11 24 24 24 4 0 8 4 8 8 0 4-4 8-8 8z m62 22c-17 17-39 26-63 26-23 0-46-9-62-26-1-1-1-1-1-1 0 0-1 0-1 1-17 17-39 26-63 26-23 0-45-9-62-26-35-35-35-92 0-127l105-109-9-19c-4-8-1-17 7-21 2-1 5-2 7-2 0 0 0 0 0 0 0-31 14-60 39-77 15-11 25-30 25-51 0-21-10-40-25-51-8-5-9-15-4-22 3-5 8-7 13-7 3 0 6 1 9 3 24 17 39 46 39 77 0 31-15 60-39 77-16 11-25 30-25 51 0 0 0 0 0 0 2 0 5 1 7 2 8 4 11 13 7 21l-9 19 105 109c34 35 34 92 0 127z m-23-105l-103-106-103 107c-23 22-23 59 0 81 10 11 24 17 39 17 16 0 30-6 40-17 4-3 7-9 9-14l1-1c3-5 8-8 14-8l0 0c6 0 11 3 14 8l0 1c3 5 6 11 9 14 11 11 25 17 40 17 15 0 30-6 40-17 22-22 22-59 0-82z"/>
<glyph glyph-name="baggage" unicode="&#65;" d="M348 374l-31 0 0 123c0 8-7 15-15 15l-92 0c-8 0-15-7-15-15l0-123-31 0c-25 0-46-20-46-45l0-260c0-26 21-46 46-46l0-8c0-8 7-15 16-15 8 0 15 7 15 15l0 8 122 0 0-8c0-8 7-15 15-15 9 0 16 7 16 15l0 8c25 0 46 20 46 46l0 260c0 25-21 45-46 45z m-123 92l62 0 0-92-62 0z m138-397c0-9-7-16-15-16l-184 0c-8 0-15 7-15 16l0 260c0 8 7 15 15 15l184 0c8 0 15-7 15-15z m-46 221l-122 0c-9 0-15-6-15-15 0-8 6-15 15-15l122 0c9 0 15 7 15 15 0 9-6 15-15 15z m0-76l-122 0c-9 0-15-7-15-15 0-9 6-16 15-16l122 0c9 0 15 7 15 16 0 8-6 15-15 15z m0-76l-122 0c-9 0-15-7-15-16 0-8 6-15 15-15l122 0c9 0 15 7 15 15 0 9-6 16-15 16z"/>
<glyph glyph-name="basketball-hoop" unicode="&#66;" d="M496 480l-480 0c-9 0-16-7-16-16l0-304c0-9 7-16 16-16l128 0 0-96c0-9 7-16 16-16 9 0 16 7 16 16l0 16 32 0 0-16c0-9 7-16 16-16 9 0 16 7 16 16l0 16 32 0 0-16c0-9 7-16 16-16 9 0 16 7 16 16l0 16 32 0 0-16c0-9 7-16 16-16 9 0 16 7 16 16l0 96 128 0c9 0 16 7 16 16l0 304c0 9-7 16-16 16z m-160-320l-32 0 0 32 32 0z m-64 32l0-32-32 0 0 32z m96 32l-224 0 0 112 224 0z m-160-32l0-32-32 0 0 32z m-32-96l0 32 32 0 0-32z m64 0l0 32 32 0 0-32z m64 0l0 32 32 0 0-32z m64 96l16 0c9 0 16 7 16 16l0 144c0 9-7 16-16 16l-256 0c-9 0-16-7-16-16l0-144c0-9 7-16 16-16l16 0 0-16-112 0 0 272 448 0 0-272-112 0z"/>
<glyph glyph-name="bow-and-arrow" unicode="&#67;" d="M467 267l-32 32c-6 7-16 7-22 0-7-6-7-16 0-22l4-5-26 0c-5 70-42 134-102 173-16 11-25 30-25 51 0 7-5 13-12 15-7 2-14-1-18-7l-123-200-55 0c-6 0-11-3-14-8-3-4-3-10 0-15l12-25-12-25c-3-5-3-11 0-15 3-5 8-8 14-8l55 0 123-200c3-5 9-8 14-8 1 0 3 0 4 1 7 2 12 8 12 15 0 21 9 40 25 51 60 39 97 103 102 173l26 0-4-5c-7-6-7-16 0-22 3-3 7-5 11-5 4 0 8 2 11 5l32 32c7 6 7 16 0 22z m-226 188c7-15 17-27 30-36 51-34 83-88 88-147l-208 0-14 13z m-159-215l4 9c3 4 3 10 0 14l-4 9 23 0 16-16-16-16z m189-147c-13-9-23-21-30-36l-104 170 14 13 208 0c-5-59-37-113-88-147z"/>
<glyph glyph-name="burger" unicode="&#68;" d="M464 272l0 16c0 56-98 128-208 128-115 0-208-70-208-128l0-16c-26 0-48-22-48-48 0-26 22-48 48-48l0-32c0-26 22-48 48-48l320 0c26 0 48 22 48 48l0 32c26 0 48 22 48 48 0 26-22 48-48 48z m-384 16c0 34 73 96 176 96 100 0 176-64 176-96l0-16-352 0z m336-160l-320 0c-9 0-16 7-16 16l0 32 352 0 0-32c0-9-7-16-16-16z m48 80l-416 0c-9 0-16 7-16 16 0 9 7 16 16 16l416 0c9 0 16-7 16-16 0-9-7-16-16-16z m-192 96c0-9-7-16-16-16-9 0-16 7-16 16 0 9 7 16 16 16 9 0 16-7 16-16z m-96 0c0-9-7-16-16-16-9 0-16 7-16 16 0 9 7 16 16 16 9 0 16-7 16-16z m48 40c0-9-7-16-16-16-9 0-16 7-16 16 0 9 7 16 16 16 9 0 16-7 16-16z m96 0c0-9-7-16-16-16-9 0-16 7-16 16 0 9 7 16 16 16 9 0 16-7 16-16z m48-40c0-9-7-16-16-16-9 0-16 7-16 16 0 9 7 16 16 16 9 0 16-7 16-16z"/>
<glyph glyph-name="cat" unicode="&#70;" d="M304 136c-16 0-29 11-31 26l26 27c5 4 6 11 4 17-3 6-9 10-15 10l-64 0c-6 0-12-4-15-10-2-6-1-13 4-17l26-27c-2-15-15-26-31-26-9 0-16-7-16-16 0-9 7-16 16-16 19 0 36 8 48 22 12-14 29-22 48-22 9 0 16 7 16 16 0 9-7 16-16 16z m32 152c0-13-11-24-24-24-13 0-24 11-24 24 0 13 11 24 24 24 13 0 24-11 24-24z m-112 0c0-13-11-24-24-24-13 0-24 11-24 24 0 13 11 24 24 24 13 0 24-11 24-24z m272-72l-16 0c0 3 0 5 0 8 0 33-31 264-32 274-1 6-5 11-11 13-6 2-12 1-16-4l-77-77c-28 12-58 18-88 18-30 0-60-6-88-18l-77 77c-4 5-10 6-16 4-6-2-10-7-11-13-1-10-32-241-32-274 0-3 0-5 0-8l-16 0c-9 0-16-7-16-16 0-9 7-16 16-16l20 0c2-15 7-30 12-43l-20-5c-8-3-14-11-12-20 2-7 9-12 16-12 1 0 3 0 4 0l27 7c39-66 111-111 193-111 82 0 154 45 193 111l27-7c1 0 3 0 4 0 7 0 14 5 16 12 2 9-4 17-12 20l-20 5c5 13 10 28 12 43l20 0c9 0 16 7 16 16 0 9-7 16-16 16z m-64-68l-76 20c-9 2-17-4-20-12-2-9 4-17 12-20l69-17c-34-52-94-87-161-87-67 0-127 35-161 87l69 17c8 3 14 11 12 20-3 8-11 14-20 12l-76-20c-5 12-9 24-12 36l92 0c9 0 16 7 16 16 0 9-7 16-16 16l-96 0c0 3 0 5 0 8 0 22 17 158 28 238l62-62c4-5 12-6 18-3 26 13 55 19 84 19 29 0 58-6 84-19 6-3 14-2 18 3l62 62c11-80 28-216 28-238 0-3 0-5 0-8l-96 0c-9 0-16-7-16-16 0-9 7-16 16-16l92 0c-3-12-7-24-12-36z"/>
<glyph glyph-name="church" unicode="&#71;" d="M256 192c26 0 48 22 48 48 0 26-22 48-48 48-26 0-48-22-48-48 0-26 22-48 48-48z m0 64c9 0 16-7 16-16 0-9-7-16-16-16-9 0-16 7-16 16 0 9 7 16 16 16z m183-130l-55 28 0 70c0 3-1 6-2 9l-110 172 0 43 8 0c9 0 16 7 16 16 0 9-7 16-16 16l-8 0 0 16c0 9-7 16-16 16-9 0-16-7-16-16l0-16-8 0c-9 0-16-7-16-16 0-9 7-16 16-16l8 0 0-43-110-172c-1-3-2-6-2-9l0-70-55-28c-6-2-9-8-9-14l0-96c0-9 7-16 16-16l352 0c9 0 16 7 16 16l0 96c0 6-3 12-9 14z m-343-24l32 16 0-86-32 0z m64 42l0 75 96 151 96-151 0-187-48 0 0 80c0 26-22 48-48 48-26 0-48-22-48-48l0-80-48 0z m80-112l0 80c0 9 7 16 16 16 9 0 16-7 16-16l0-80z m176 0l-32 0 0 86 32-16z"/>
<glyph glyph-name="cocktail" unicode="&#72;" d="M376 512c-58 0-106-41-118-96l-226 0c-9 0-16-7-16-16l0-48 0 0 0 0c0-48 35-88 81-95 7-46 47-81 95-81l0-144-64 0c-9 0-16-7-16-16 0-9 7-16 16-16l160 0c9 0 16 7 16 16 0 9-7 16-16 16l-64 0 0 144c48 0 88 35 95 81 14 2 27 8 38 15l19 0c66 0 120 54 120 120 0 66-54 120-120 120z m-328-128l320 0 0-32-320 0z m256-96c-9 0-16-7-16-16 0-35-29-64-64-64l-32 0c-35 0-64 29-64 64 0 9-7 16-16 16-24 0-44 13-55 32l302 0c-11-19-31-32-55-32z m84 17c7 14 12 30 12 47l0 48c0 9-7 16-16 16l-93 0c11 37 45 64 85 64 49 0 88-39 88-88 0-45-33-81-76-87z"/>
<glyph glyph-name="cross" unicode="&#73;" d="M432 336l-96 0 0 96c0 0 0 0 0 0 0 44-36 80-80 80-44 0-80-36-80-80l0-96-96 0c-44 0-80-36-80-80 0-44 36-80 80-80l96 0 0-96c0-44 36-80 80-80 44 0 80 36 80 80l0 96 96 0c44 0 80 36 80 80 0 44-36 80-80 80z m0-128l-112 0c-9 0-16-7-16-16l0-112c0-26-22-48-48-48-26 0-48 22-48 48l0 112c0 9-7 16-16 16l-112 0c-26 0-48 22-48 48 0 26 22 48 48 48l112 0c9 0 16 7 16 16l0 112c0 26 22 48 48 48 26 0 48-22 48-48 0 0 0 0 0 0l0-112c0-9 7-16 16-16l112 0c26 0 48-22 48-48 0-26-22-48-48-48z"/>
<glyph glyph-name="earth" unicode="&#74;" d="M512 256l0 0c0 141-115 256-256 256-141 0-256-115-256-256l0 0c0-141 115-256 256-256 0 0 0 0 0 0 0 0 0 0 0 0 141 0 256 115 256 256z m-54-96l-76 0c6 25 9 52 10 80l87 0c-2-28-9-55-21-80z m-425 80l87 0c1-28 4-55 10-80l-76 0c-12 25-19 52-21 80z m21 112l76 0c-6-25-9-52-10-80l-87 0c2 28 9 55 21 80z m218 32l0 93c28-10 53-44 69-93z m78-32c5-25 9-52 10-80l-88 0 0 80z m-110 125l0-93-69 0c16 49 41 83 69 93z m0-125l0-80-88 0c1 28 5 55 10 80z m-88-112l88 0 0-80-78 0c-5 25-9 52-10 80z m88-112l0-93c-28 10-53 44-69 93z m32-93l0 93 69 0c-16-49-41-83-69-93z m0 125l0 80 88 0c-1-28-5-55-10-80z m120 112c-1 28-4 55-10 80l76 0c12-25 19-52 21-80z m48 112l-66 0c-9 32-23 60-39 82 43-17 79-45 105-82z m-263 82c-16-22-30-50-39-82l-66 0c26 37 62 65 105 82z m-105-338l66 0c9-32 23-60 39-82-43 17-79 45-105 82z m263-82c16 22 30 50 39 82l66 0c-26-37-62-65-105-82z"/>
<glyph glyph-name="film" unicode="&#75;" d="M448 512c-9 0-16-7-16-16l0-24-48 0 0 24c0 9-7 16-16 16-9 0-16-7-16-16 0 0 0 0 0 0l0-64-192 0 0 64c0 9-7 16-16 16-9 0-16-7-16-16l0-24-48 0 0 24c0 9-7 16-16 16-9 0-16-7-16-16 0 0 0 0 0 0l0-480c0 0 0 0 0 0 0-9 7-16 16-16 9 0 16 7 16 16l0 24 48 0 0-24c0-9 7-16 16-16 9 0 16 7 16 16l0 64 192 0 0-64c0 0 0 0 0 0 0-9 7-16 16-16 9 0 16 7 16 16l0 24 48 0 0-24c0-9 7-16 16-16 9 0 16 7 16 16l0 480c0 9-7 16-16 16z m-320-440l-48 0 0 48 48 0z m0 80l-48 0 0 48 48 0z m0 80l-48 0 0 48 48 0z m0 80l-48 0 0 48 48 0z m0 80l-48 0 0 48 48 0z m32 8l192 0 0-128-192 0z m0-288l0 128 192 0 0-128z m272-40l-48 0 0 48 48 0z m0 80l-48 0 0 48 48 0z m0 80l-48 0 0 48 48 0z m0 80l-48 0 0 48 48 0z m0 80l-48 0 0 48 48 0z"/>
<glyph glyph-name="gingerbread-man" unicode="&#76;" d="M248 424c0-9-7-16-16-16-9 0-16 7-16 16 0 9 7 16 16 16 9 0 16-7 16-16z m48 0c0-9-7-16-16-16-9 0-16 7-16 16 0 9 7 16 16 16 9 0 16-7 16-16z m-24-128c0-9-7-16-16-16-9 0-16 7-16 16 0 9 7 16 16 16 9 0 16-7 16-16z m0-64c0-9-7-16-16-16-9 0-16 7-16 16 0 9 7 16 16 16 9 0 16-7 16-16z m144 136l-77 0c9 14 13 31 13 48 0 53-43 96-96 96-53 0-96-43-96-96 0-17 4-34 13-48l-77 0c-31 0-56-25-56-56 0-30 24-54 55-56 12-1 42-4 61-6-4-19-9-49-12-63-3-19-12-43-20-66-9-23-17-46-20-63-2-13 2-27 11-38 11-12 28-20 45-20 28 0 53 19 63 51 2 6 4 12 7 18 7 20 15 41 18 65 0 0 1 10 8 10 6 0 8-10 8-10 3-19 9-36 15-52 3-11 7-20 9-30 9-35 30-52 64-52 17 0 34 8 45 20 9 11 13 25 11 38-3 17-11 40-20 63-8 23-17 47-20 66-3 14-8 44-12 63 19 2 49 5 61 6 31 2 55 26 55 56 0 31-25 56-56 56z m-344-56c0 13 11 24 24 24l8 0 0-49c-3 1-5 1-7 1-14 1-25 11-25 24z m88-280c-8 0-16 4-20 9-4 4-5 8-4 12 1 5 2 10 4 16l52-10c-6-17-18-27-32-27z m212 9c-4-5-12-9-20-9-16 0-26 4-32 27l52 10c2-6 3-11 4-16 1-4 0-8-4-12z m-50 220c0-2 10-59 14-80 5-21 14-46 22-70 2-4 3-8 4-11l-52-10c0 1-1 2-1 3-6 15-11 30-13 45-3 18-16 38-40 38-23 0-37-19-40-38-2-17-7-33-13-49l-53 11c1 3 2 7 4 11 8 24 17 49 22 70 4 21 14 78 14 80 1 5 0 9-3 13-2 3-6 5-11 6-1 0-20 2-40 4l0 52 72 0c7 0 13 4 15 11 2 6 0 14-5 18-17 12-26 31-26 51 0 35 29 64 64 64 35 0 64-29 64-64 0-20-9-39-26-51-5-4-7-11-5-18 2-7 8-11 15-11l72 0 0-52c-20-2-39-4-40-4-5-1-9-3-11-6-3-4-4-8-3-13z m94 27c-3 0-5 0-8-1l0 49 8 0c13 0 24-11 24-24 0-13-11-23-24-24z"/>
<glyph glyph-name="heart" unicode="&#77;" d="M152 424c-53 0-96-43-96-96 0-9 7-16 16-16 9 0 16 7 16 16 0 35 29 64 64 64 9 0 16 7 16 16 0 9-7 16-16 16z m318 14c-27 27-64 42-102 42-38 0-75-15-102-42-3-4-7-7-10-11-3 4-7 7-10 11-27 27-64 42-102 42-38 0-75-15-102-42-27-27-42-63-42-102 0-38 15-74 42-101l191-194c6-6 14-9 23-9 9 0 17 3 23 9l191 194c27 27 42 63 42 101 0 39-15 75-42 102z m-23-181l-191-193-191 194c-21 21-33 49-33 78 0 30 12 58 33 79 21 21 49 33 79 33 30 0 58-12 79-33 8-8 14-14 19-23 3-5 8-8 14-8 6 0 11 3 14 8 5 9 11 15 19 23 21 21 49 33 79 33 30 0 58-12 79-33 21-21 33-49 33-79 0-29-12-57-33-79z"/>
<glyph glyph-name="house-1" unicode="&#78;" d="M499 275l-232 232c-6 7-16 7-22 0l-232-232c-7-6-7-16 0-22 6-7 16-7 22 0l29 28 0-233c0-26 22-48 48-48l288 0c26 0 48 22 48 48l0 233 29-28c6-7 16-7 22 0 7 6 7 16 0 22z m-291-243l0 176 96 0 0-176z m208 16c0-9-7-16-16-16l-64 0 0 192c0 9-7 16-16 16l-128 0c-9 0-16-7-16-16l0-192-64 0c-9 0-16 7-16 16l0 265 160 160 160-160z"/>
<glyph glyph-name="lifebuoy" unicode="&#79;" d="M256 512c-141 0-256-115-256-256 0-141 115-256 256-256 141 0 256 115 256 256 0 141-115 256-256 256z m0-368c-62 0-112 50-112 112 0 62 50 112 112 112 62 0 112-50 112-112 0-62-50-112-112-112z m129 175l1-1 59 59c22-35 35-77 35-121 0-44-13-86-35-121l-59 59-1-1c10 19 15 40 15 63 0 23-5 44-15 63z m40 84l-57-57c-6 8-14 16-22 22l57 57c8-7 15-14 22-22z m-48 42l-59-59 1-1c-19 10-40 15-63 15-23 0-44-5-63-15l1 1-59 59c35 22 77 35 121 35 44 0 86-13 121-35z m-268-20l57-57c-8-6-16-14-22-22l-57 57c7 8 14 15 22 22z m-42-48l59-59 1 1c-10-19-15-40-15-63 0-23 5-44 15-63l-1 1-59-59c-22 35-35 77-35 121 0 44 13 86 35 121z m20-268l57 57c6-8 14-16 22-22l-57-57c-8 7-15 14-22 22z m48-42l59 59-1 1c19-10 40-15 63-15 23 0 44 5 63 15l-1-1 59-59c-35-22-77-35-121-35-44 0-86 13-121 35z m268 20l-57 57c8 6 16 14 22 22l57-57c-7-8-14-15-22-22z"/>
<glyph glyph-name="marker-location-2" unicode="&#80;" d="M312 376c0 31-25 56-56 56-31 0-56-25-56-56 0-31 25-56 56-56 31 0 56 25 56 56z m-80 0c0 13 11 24 24 24 13 0 24-11 24-24 0-13-11-24-24-24-13 0-24 11-24 24z m24-296c5 0 10 3 13 7 5 8 123 185 123 289 0 75-61 136-136 136-75 0-136-61-136-136 0-104 118-281 123-289 3-4 8-7 13-7z m0 400c57 0 104-47 104-104 0-75-73-201-104-250-31 49-104 175-104 250 0 57 47 104 104 104z m167-457l-64 142c-4 8-14 11-22 8-8-4-11-13-8-22l54-119-254 0 54 119c3 9 0 18-8 22-8 3-18 0-22-8l-64-142c-2-5-1-11 2-16 3-4 8-7 13-7l304 0c5 0 10 3 13 7 3 5 4 11 2 16z"/>
<glyph glyph-name="network" unicode="&#81;" d="M416 512c-44 0-80-36-80-80 0-26 12-48 31-63l-94-211c-11 3-23 3-34 0l-94 211c19 15 31 37 31 63 0 44-36 80-80 80-44 0-80-36-80-80 0-44 36-80 80-80 7 0 14 1 21 3l93-210c-12-8-21-19-27-33-18-40 0-87 41-105 40-18 87 0 105 41 16 35 4 76-27 97l93 210c7-2 14-3 21-3 44 0 80 36 80 80 0 44-36 80-80 80z m-368-80c0 26 21 48 48 48 27 0 48-22 48-48 0-26-21-48-48-48-27 0-48 21-48 48z m252-371c-11-25-39-36-63-25-25 11-36 39-25 63 11 25 39 36 63 25 25-11 36-39 25-63z m116 323c-27 0-48 21-48 48 0 26 21 48 48 48 27 0 48-22 48-48 0-26-21-48-48-48z"/>
<glyph glyph-name="panda" unicode="&#82;" d="M304 136c-16 0-29 11-31 26l26 27c5 4 6 11 4 17-3 6-9 10-15 10l-64 0c-6 0-12-4-15-10-2-6-1-13 4-17l26-27c-2-15-15-26-31-26-9 0-16-7-16-16 0-9 7-16 16-16 19 0 36 8 48 22 12-14 29-22 48-22 9 0 16 7 16 16 0 9-7 16-16 16z m-22 198c-18-18-12-53 13-79 26-25 61-31 79-13 18 18 12 53-13 79-26 25-61 31-79 13z m38-78c-9 0-16 7-16 16 0 9 7 16 16 16 9 0 16-7 16-16 0-9-7-16-16-16z m-90 78c-18 18-53 12-79-13-25-26-31-61-13-79 18-18 53-12 79 13 25 26 31 61 13 79z m-38-78c-9 0-16 7-16 16 0 9 7 16 16 16 9 0 16-7 16-16 0-9-7-16-16-16z m296 168c0 49-39 88-88 88-37 0-69-23-82-56-40 11-84 11-124 0-13 33-45 56-82 56-49 0-88-39-88-88 0-28 13-53 35-70-23-37-35-78-35-122 0-128 104-232 232-232 128 0 232 104 232 232 0 44-12 85-35 122 22 17 35 42 35 70z m-32-192c0-110-90-200-200-200-110 0-200 90-200 200 0 43 13 83 38 118l12 15-18 8c-19 10-32 30-32 51 0 31 25 56 56 56 28 0 51-20 55-47l3-19 18 6c44 16 92 16 136 0l18-6 3 19c4 27 27 47 55 47 31 0 56-25 56-56 0-21-13-41-32-51l-18-8 12-15c25-35 38-75 38-118z"/>
<glyph glyph-name="photocamera-3" unicode="&#83;" d="M464 408l-272 0 0 32c0 9-7 16-16 16l-96 0c-9 0-16-7-16-16l0-32-16 0c-26 0-48-22-48-48l0-256c0-26 22-48 48-48l416 0c26 0 48 22 48 48l0 256c0 26-22 48-48 48z m-368 16l64 0 0-16-64 0z m384-320c0-9-7-16-16-16l-416 0c-9 0-16 7-16 16l0 48 144 0c9 0 16 7 16 16 0 9-7 16-16 16l-144 0 0 32 144 0c9 0 16 7 16 16 0 9-7 16-16 16l-144 0 0 32 144 0c9 0 16 7 16 16 0 9-7 16-16 16l-144 0 0 48c0 9 7 16 16 16l416 0c9 0 16-7 16-16z m-144 256c-71 0-128-57-128-128 0-71 57-128 128-128 71 0 128 57 128 128 0 71-57 128-128 128z m0-224c-53 0-96 43-96 96 0 53 43 96 96 96 53 0 96-43 96-96 0-53-43-96-96-96z m48 160l-96 0c-9 0-16-7-16-16l0-96c0-9 7-16 16-16l96 0c9 0 16 7 16 16l0 96c0 9-7 16-16 16z m-16-96l-64 0 0 64 64 0z"/>
<glyph glyph-name="plate" unicode="&#84;" d="M280 392c-75 0-136-61-136-136 0-75 61-136 136-136 75 0 136 61 136 136 0 75-61 136-136 136z m0-240c-57 0-104 47-104 104 0 57 47 104 104 104 57 0 104-47 104-104 0-57-47-104-104-104z m0 160c-31 0-56-25-56-56 0-31 25-56 56-56 31 0 56 25 56 56 0 31-25 56-56 56z m0-80c-13 0-24 11-24 24 0 13 11 24 24 24 13 0 24-11 24-24 0-13-11-24-24-24z m216 160l-16 0c-26 0-48-22-48-48l0-56c0-26 22-48 48-48l0-104c0-9 7-16 16-16 9 0 16 7 16 16l0 240c0 9-7 16-16 16z m-32-48c0 9 7 16 16 16l0-88c-9 0-16 7-16 16z m-352 48c-9 0-16-7-16-16l0-72c0-18-14-32-32-32-18 0-32 14-32 32l0 72c0 9-7 16-16 16-9 0-16-7-16-16l0-72c0-30 21-55 48-62 0-1 0-1 0-2l0-104c0-9 7-16 16-16 9 0 16 7 16 16l0 104c0 1 0 1 0 2 27 7 48 32 48 62l0 72c0 9-7 16-16 16z m-48-104c9 0 16 7 16 16l0 72c0 9-7 16-16 16-9 0-16-7-16-16l0-72c0-9 7-16 16-16z"/>
<glyph glyph-name="rain-thunder" unicode="&#85;" d="M322 32c-39 0-72 30-72 67 0 41 54 111 60 119 6 8 19 8 25 0 6-8 59-78 59-119 0-37-32-67-72-67z m0 149c-18-27-40-64-40-82 0-19 18-35 40-35 22 0 40 16 40 35 0 18-21 55-40 82z m78 11l-14 0c-8 0-16 7-16 16 0 9 8 16 16 16l14 0c44 0 80 36 80 80 0 44-36 80-80 80-9 0-17-1-25-4-8-3-16 1-20 8-19 37-57 60-99 60-54 0-100-38-110-91-1-5-4-9-8-11-5-2-10-2-15 0-8 4-17 6-27 6-35 0-64-29-64-64 0-35 29-64 64-64l18 0c9 0 16-7 16-16 0-9-7-16-16-16l-18 0c-53 0-96 43-96 96 0 53 43 96 96 96 8 0 16-1 23-3 19 58 74 99 137 99 50 0 95-25 121-66 8 1 15 2 23 2 62 0 112-50 112-112 0-62-50-112-112-112z m-206-96c-3 0-6 1-9 3-7 5-9 15-4 22l47 71-66 0c-6 0-11 3-14 8-3 6-2 12 1 17l64 96c5 7 15 9 22 4 8-5 10-15 5-22l-48-71 66 0c6 0 12-3 14-8 3-6 3-12 0-17l-64-96c-3-5-8-7-14-7z"/>
<glyph glyph-name="santa-hat" unicode="&#86;" d="M416 128l-7 0c-11 17-39 59-59 96-27 48-21 115-12 160 34 1 62 29 62 64 0 35-29 64-64 64-35 0-64-29-64-64 0-10 2-20 7-29-44-33-105-86-141-147-27-46-42-115-47-144-24-3-43-23-43-48l0-32c0-26 22-48 48-48l320 0c26 0 48 22 48 48l0 32c0 26-22 48-48 48z m-80 352c18 0 32-14 32-32 0-18-14-32-32-32-18 0-32 14-32 32 0 18 14 32 32 32z m-170-224c33 56 93 108 134 139 2-1 4-3 7-4-10-50-17-125 15-183 15-28 35-59 48-80l-247 0c6 30 21 90 43 128z m266-208c0-9-7-16-16-16l-320 0c-9 0-16 7-16 16l0 32c0 9 7 16 16 16l320 0c9 0 16-7 16-16z"/>
<glyph glyph-name="ship-1" unicode="&#87;" d="M216 360l80 0c9 0 16 7 16 16 0 9-7 16-16 16l-80 0c-9 0-16-7-16-16 0-9 7-16 16-16z m24-104c0-9-7-16-16-16-9 0-16 7-16 16 0 9 7 16 16 16 9 0 16-7 16-16z m64 0c0-9-7-16-16-16-9 0-16 7-16 16 0 9 7 16 16 16 9 0 16-7 16-16z m136-176l-48 0 0 76 46 76c4 7 2 17-6 22 0 0-1 0-1 0 0 0 0 0 0 0l-39 19c0 0 0 0 0 1l-16 152c-1 8-8 14-16 14 0 0 0 0 0 0l-64 0 0 24c0 9-7 16-16 16-9 0-16-7-16-16l0-24-16 0 0 56c0 9-7 16-16 16-9 0-16-7-16-16l0-56-64 0c0 0 0 0 0 0-8 0-15-6-16-14l-16-152c0-1 0-1 0-1l-39-19c0 0 0 0 0 0 0 0-1 0-1 0-8-5-10-15-6-22l46-76 0-76-48 0c-9 0-16-7-16-16 0-9 7-16 16-16l61 0 117-47c2-1 4-1 6-1 2 0 4 1 6 1 0 0 0 0 0 0l117 47 61 0c9 0 16 7 16 16 0 9-7 16-16 16z m-82 209l-95 45c-5 3-10 2-14 0 0 0 0 0 0 0l-95-45 12 119 180 0z m4-121c-1-2-2-5-2-8 0 0 0 0 0 0l0-85-104-42-104 42 0 85c0 0 0 0 0 0 0 3-1 6-2 8l-39 65 145 69 145-69z m62-136l-64 0c-9 0-16-7-16-16 0-9 7-16 16-16l64 0c9 0 16 7 16 16 0 9-7 16-16 16z m-272 0l-64 0c-9 0-16-7-16-16 0-9 7-16 16-16l64 0c9 0 16 7 16 16 0 9-7 16-16 16z"/>
<glyph glyph-name="sleigh-1" unicode="&#88;" d="M496 208l-32 0 0 64 32 0c9 0 16 7 16 16 0 9-7 16-16 16l-320 0c-9 0-16-7-16-16 0-9 7-16 16-16l32 0 0-64-128 0c-26 0-48 22-48 48 0 26 22 48 48 48 9 0 16 7 16 16 0 9-7 16-16 16-44 0-80-36-80-80 0-44 36-80 80-80l416 0c9 0 16 7 16 16 0 9-7 16-16 16z m-256 64l192 0 0-64-192 0z"/>
<glyph glyph-name="snowman" unicode="&#89;" d="M272 224c0-9-7-16-16-16-9 0-16 7-16 16 0 9 7 16 16 16 9 0 16-7 16-16z m-24 160c0-9-7-16-16-16-9 0-16 7-16 16 0 9 7 16 16 16 9 0 16-7 16-16z m48 0c0-9-7-16-16-16-9 0-16 7-16 16 0 9 7 16 16 16 9 0 16-7 16-16z m-24-224c0-9-7-16-16-16-9 0-16 7-16 16 0 9 7 16 16 16 9 0 16-7 16-16z m0-64c0-9-7-16-16-16-9 0-16 7-16 16 0 9 7 16 16 16 9 0 16-7 16-16z m120 216l-48 0c-1 0-1 0-2 0-4 3-9 5-15 8 16 17 25 40 25 64 0 17-5 34-13 48l13 0c9 0 16 7 16 16 0 9-7 16-16 16l-40 0 0 32c0 9-7 16-16 16l-80 0c-9 0-16-7-16-16l0-32-40 0c-9 0-16-7-16-16 0-9 7-16 16-16l13 0c-8-14-13-31-13-48 0-24 9-47 25-64-6-2-11-5-15-8-1 0-1 0-2 0l-48 0c0 0 0 0 0 0-44 0-80-36-80-80 0-9 7-16 16-16 9 0 16 7 16 16 0 26 22 48 48 48 0 0 0 0 0 0l11 0c-27-30-43-70-43-112 0-93 75-168 168-168 93 0 168 75 168 168 0 42-16 82-43 112l11 0c26 0 48-22 48-48 0-9 7-16 16-16 9 0 16 7 16 16 0 44-36 80-80 80z m-136-280c-75 0-136 61-136 136 0 61 41 115 101 131 6 2 10 7 11 14 1 6-2 12-8 15-20 12-32 33-32 56 0 19 8 36 22 48l84 0c14-12 22-29 22-48 0-23-12-44-32-56-6-3-9-9-8-15 1-7 5-12 11-14 60-16 101-70 101-131 0-75-61-136-136-136z"/>
<glyph glyph-name="sun-rain" unicode="&#90;" d="M256 432c9 0 16 7 16 16l0 48c0 9-7 16-16 16-9 0-16-7-16-16l0-48c0-9 7-16 16-16z m0-352c-9 0-16-7-16-16l0-48c0-9 7-16 16-16 9 0 16 7 16 16l0 48c0 9-7 16-16 16z m136 296c4 0 8 1 11 4l34 34c6 7 6 17 0 23-6 6-16 6-23 0l-34-34c-6-6-6-16 0-23 4-3 8-4 12-4z m-283-244l-34-34c-6-7-6-17 0-23 3-3 7-5 11-5 4 0 8 2 12 5l34 34c6 6 6 16 0 23-7 6-17 6-23 0z m0 248c3-3 7-4 11-4 4 0 8 1 12 4 6 7 6 17 0 23l-34 34c-7 6-17 6-23 0-6-6-6-16 0-23z m387-108l-48 0c-9 0-16-7-16-16 0-9 7-16 16-16l48 0c9 0 16 7 16 16 0 9-7 16-16 16z m-416-16c0 9-7 16-16 16l-48 0c-9 0-16-7-16-16 0-9 7-16 16-16l48 0c9 0 16 7 16 16z m336 0c0 88-72 160-160 160-88 0-160-72-160-160 0-88 72-160 160-160 16 0 30 2 45 6-1-3-1-6-1-10 0-51 43-92 96-92 53 0 96 41 96 92 0 50-55 134-76 164 0 0 0 0 0 0z m-160-128c-71 0-128 57-128 128 0 71 57 128 128 128 67 0 122-52 128-118-1 0-1 0-1-1-6-8-51-70-72-124-17-8-35-13-55-13z m140-96c-35 0-64 27-64 60 0 34 39 99 64 136 25-37 64-102 64-136 0-33-29-60-64-60z"/>
<glyph glyph-name="tooth" unicode="&#48;" d="M431 477c-22 22-52 35-84 35l0 0c-32 0-63-13-85-35-2-2-4-5-6-7-2 2-4 5-6 7-23 22-53 35-85 35 0 0 0 0 0 0-32 0-62-13-85-35-30-30-39-69-26-109 6-19 17-44 29-69 15-33 30-67 36-91 8-34 17-148 18-157 0-28 24-51 53-51 30 0 54 23 54 52l0 98c0 0 0 0 0 0 0 11 9 20 21 20 6 0 12-2 16-6 3-4 6-9 6-14l0-98c0-29 24-52 53-52 29 0 53 23 53 51 1 9 9 123 19 157l5 20c12 43 27 102 41 140 14 38 4 78-27 109z m-3-98c-14-39-30-99-42-142l-5-20c-11-38-19-159-20-164 0-1 0-1 0-1 0-11-9-20-21-20-12 0-21 9-21 20l0 98c0 28-24 52-54 52-29 0-53-23-53-52 0 0 0 0 0 0l0-98c0-11-10-20-22-20-11 0-21 9-21 20 0 0 0 1 0 1-1 5-10 124-19 162-6 27-23 63-38 97-12 25-22 48-28 66-9 28-3 55 19 76 16 17 38 26 62 26 23 0 45-9 62-26 3-3 7-8 10-13l-18-29c-5-8-3-17 5-22 2-2 5-3 8-3 5 0 11 3 14 8l23 37c1 1 1 1 1 1 0 0 0 0 0 0 4 7 8 15 14 21 17 17 39 26 63 26 23 0 45-9 62-26 21-22 28-49 19-75z"/>
<glyph glyph-name="umbrella" unicode="&#49;" d="M272 479c0 1 0 1 0 1l0 16c0 9-7 16-16 16-9 0-16-7-16-16 0 0 0 0 0 0l0-16c0 0 0 0 0 0 0 0 0 0 0-1-107-8-192-97-192-207 0-9 7-16 16-16l176 0 0-176 0 0 0 0c0-26-21-48-48-48-27 0-48 21-48 48l0 0c0 9-7 16-16 16-9 0-16-7-16-16l0 0c0-44 36-80 80-80 44 0 80 36 80 80l0 0 0 176 176 0c9 0 16 7 16 16 0 110-85 199-192 207z m-16-31c92 0 167-70 175-160l-350 0c8 90 83 160 175 160z"/>
<glyph glyph-name="watch-1" unicode="&#50;" d="M264 263l0 57c0 9-7 16-16 16-9 0-16-7-16-16l0-64c0-4 2-8 5-11l64-64c3-3 7-5 11-5 4 0 8 2 11 5 7 6 7 16 0 22z m160 33l-5 0c-8 38-30 72-59 96l0 104c0 9-7 16-16 16l-192 0c-9 0-16-7-16-16l0-104c-39-33-64-81-64-136 0-55 25-103 64-136l0-104c0-9 7-16 16-16l192 0c9 0 16 7 16 16l0 104c29 24 50 58 59 96l5 0c9 0 16 7 16 16l0 48c0 9-7 16-16 16z m-256 184l160 0 0-67c-24 12-51 19-80 19-29 0-56-7-80-19z m160-448l-160 0 0 67c24-12 51-19 80-19 29 0 56 7 80 19z m-80 80c-79 0-144 65-144 144 0 79 65 144 144 144 79 0 144-65 144-144 0-79-65-144-144-144z"/>
<glyph glyph-name="wreath" unicode="&#51;" d="M448 320c0 106-86 192-192 192-106 0-192-86-192-192 0-39 12-75 32-105l0-57c0-22 14-38 34-38 5 0 10 1 15 4l41 18c2-1 4-2 6-3l0-123c0-6 4-12 9-14 6-3 12-2 17 2l38 30 38-30c3-3 6-4 10-4 2 0 5 1 7 2 5 2 9 8 9 14l0 123c2 1 4 2 6 2l41-18c5-2 10-3 15-3 10 0 19 4 26 12 5 7 8 16 8 26l0 57c20 30 32 66 32 105z m-192 160c88 0 160-72 160-160 0-18-3-36-9-52-6 8-14 12-25 12-1 0-3 0-5-1 5 13 7 27 7 41 0 71-57 128-128 128-71 0-128-57-128-128 0-14 2-28 7-41-2 1-4 1-5 1-11 0-19-4-25-12-6 16-9 34-9 52 0 88 72 160 160 160z m-96-160c0 53 43 96 96 96 53 0 96-43 96-96 0-22-8-43-21-59l-31-14c-12 10-27 17-44 17-17 0-32-7-44-17l-31 14c-13 16-21 37-21 59z m128-120c0-18-14-32-32-32-18 0-32 14-32 32 0 18 14 32 32 32 18 0 32-14 32-32z m-156-47c-1-1-2-1-2-1l-1 0c0 0-1 2-1 6l0 84c0 4 1 6 2 6 0 0 1 0 2-1l63-28c-2-6-3-12-3-19 0-7 1-13 3-19z m156-104l-22 18c-3 2-6 3-10 3-4 0-7-1-10-3l-22-18 0 95 1 0c9-5 20-8 31-8 11 0 22 3 31 8l1 0z m96 109c0-4-1-6-1-6 0 0-1 0-3 1l-63 28c2 6 3 12 3 19 0 7-1 13-3 19l63 28c1 1 2 1 3 1 0 0 1-2 1-6z"/>
<glyph glyph-name="search-1" unicode="&#52;" d="M507 27l-141 142c70 81 67 205-11 282-81 81-213 81-294 0-81-81-81-213 0-294 77-78 201-81 282-11l142-141c0 0 0 0 0 0 6-7 16-7 22 0 7 6 7 16 0 22z m-423 153c-69 68-69 180 0 248 68 69 180 69 248 0 69-68 69-180 0-248-68-69-180-69-248 0z m268 124c0 79-65 144-144 144-9 0-16-7-16-16 0-9 7-16 16-16 62 0 112-50 112-112 0-9 7-16 16-16 9 0 16 7 16 16z"/>
<glyph glyph-name="watch-2" unicode="&#53;" d="M264 263l0 25c0 9-7 16-16 16-9 0-16-7-16-16l0-32c0-4 2-8 5-11l32-32c3-3 7-5 11-5 4 0 8 2 11 5 7 6 7 16 0 22z m96 25l-5 0c-7 24-23 45-43 60l0 116c0 26-22 48-48 48l-32 0c-26 0-48-22-48-48l0-116c-29-20-48-54-48-92 0-38 19-72 48-92l0-116c0-26 22-48 48-48l32 0c26 0 48 22 48 48l0 116c20 15 36 36 43 60l5 0c9 0 16 7 16 16l0 32c0 9-7 16-16 16z m-144 176c0 9 7 16 16 16l32 0c9 0 16-7 16-16l0-101c-10 3-21 5-32 5-11 0-22-2-32-5z m64-416c0-9-7-16-16-16l-32 0c-9 0-16 7-16 27l0 90c10-3 21-5 32-5 11 0 22 2 32 5z m-32 128c-44 0-80 36-80 80 0 44 36 80 80 80 44 0 80-36 80-80 0-44-36-80-80-80z m16-112c0-9-7-16-16-16-9 0-16 7-16 16 0 9 7 16 16 16 9 0 16-7 16-16z m0 48c0-9-7-16-16-16-9 0-16 7-16 16 0 9 7 16 16 16 9 0 16-7 16-16z"/>
<glyph glyph-name="usb" unicode="&#54;" d="M384 368l-64 0c-9 0-16-7-16-16l0-64c0-9 7-16 16-16l13 0c-4-9-14-16-37-29l-9-5c-5-3-10-6-15-9l0 155 24 0c5 0 10 3 13 7 3 5 4 10 2 15l-40 96c-3 6-9 10-15 10-6 0-12-4-15-10l-40-96c-2-5-1-10 2-15 3-4 8-7 13-7l24 0 0-195c-5 3-10 6-17 9-25 13-38 21-44 30 17 8 29 24 29 44 0 26-22 48-48 48-26 0-48-22-48-48 0-21 14-40 34-46 6-27 34-42 63-56 29-15 31-23 31-42l0-2c-28-7-48-32-48-62 0-35 29-64 64-64 35 0 64 29 64 64 0 30-20 55-48 62l0 50c0 16 3 19 30 34 3 1 7 3 10 5 29 17 49 30 54 57l18 0c9 0 16 7 16 16l0 64c0 9-7 16-16 16z m-128 86l16-38-32 0z m-96-166c9 0 16-7 16-16 0-9-7-16-16-16-9 0-16 7-16 16 0 9 7 16 16 16z m128-224c0-18-14-32-32-32-18 0-32 14-32 32 0 18 14 32 32 32 18 0 32-14 32-32z m80 240l-32 0 0 32 32 0z"/>
<glyph glyph-name="tower-bridge" unicode="&#55;" d="M496 224l-32 0 0 41c9-6 20-9 32-9 9 0 16 7 16 16 0 9-7 16-16 16-18 0-32 14-32 32l0 37c0 3-1 5-2 8l-32 59c-3 5-8 8-14 8-6 0-11-3-14-8l-32-59c-1-3-2-5-2-8l0-21-224 0 0 21c0 3-1 5-2 8l-32 59c-3 5-8 8-14 8-6 0-11-3-14-8l-32-59c-1-3-2-5-2-8l0-37c0-18-14-32-32-32-9 0-16-7-16-16 0-9 7-16 16-16 12 0 23 3 32 9l0-41-32 0c-9 0-16-7-16-16 0-9 7-16 16-16l32 0 0-96c0-9 7-16 16-16l64 0c9 0 16 7 16 16l0 38c17 8 61 26 112 26 51 0 94-18 112-26l0-38c0-9 7-16 16-16l64 0c9 0 16 7 16 16l0 96 32 0c9 0 16 7 16 16 0 9-7 16-16 16z m-96 129l16 29 16-29 0-17-32 0z m-256-49l224 0 0-80-224 0z m-64 49l16 29 16-29 0-17-32 0z m32-241l-32 0 0 192 32 0z m144 80c-47 0-88-13-112-23l0 23 224 0 0-23c-24 10-65 23-112 23z m176-80l-32 0 0 192 32 0z"/>
<glyph glyph-name="surf" unicode="&#56;" d="M269 506c-6 8-20 8-26 0-70-91-99-168-99-264 0-56 11-140 37-200 2-4 5-7 9-9 5-1 9-1 13 1l37 20 0-38c0-8 7-16 16-16 9 0 16 8 16 16l0 38 37-20c2-1 5-2 7-2 2 0 4 1 6 1 4 2 7 5 9 9 26 60 37 144 37 200 0 96-29 173-99 264z m-65-435c-17 48-28 114-28 171 0 75 19 136 64 205l0-357z m104 0l-36 19 0 357c45-69 64-130 64-205 0-57-11-123-28-171z"/>
<glyph glyph-name="soccer-ball" unicode="&#57;" d="M256 512c-141 0-256-115-256-256 0-141 115-256 256-256 141 0 256 115 256 256 0 141-115 256-256 256z m206-168l-75-26-115 82 0 79c86-6 158-60 190-135z m-138-176l-136 0-41 126 109 78 109-78z m-84 311l0-79-115-82-75 26c32 75 104 129 190 135z m-208-223c0 20 3 39 7 57l76-25 44-133-53-65c-46 41-74 100-74 166z m99-186l53 66 144 0 53-66c-35-24-79-38-125-38-46 0-89 14-125 38z m275 20l-53 65 44 133 76 25c4-18 7-37 7-57 0-66-28-125-74-166z"/>
<glyph glyph-name="sleigh-2" unicode="&#33;" d="M496 128l-64 0 0 64 32 0c8 0 14 6 16 13 0 0 0 0 0 0l32 192c1 9-5 17-13 19-1 0-1 0-2 0 0 0-1 0-1 0 0 0 0 0-1 0l0 0c-63 0-179-28-190-128l-119 0-12 23c0 0 0 0 0 0-2 5-8 9-14 9l-80 0c0 0 0 0 0 0-2 0-3 0-5-1-8-3-13-12-10-20l32-96c2-7 8-11 15-11 0 0 0 0 0 0l32 0 0-64-64 0c-26 0-48 22-48 48 0 9-7 16-16 16-9 0-16-7-16-16 0-44 36-80 80-80l416 0c9 0 16 7 16 16 0 9-7 16-16 16z m-19 255l-27-159-326 0-22 64 48 0 12-23c2-6 8-9 14-9 0 0 0 0 0 0l144 0c9 0 16 7 16 16 0 87 98 107 141 111z m-301-191l224 0 0-64-224 0z"/>
<glyph glyph-name="ship-2" unicode="&#34;" d="M496 256l-80 0 0 80c0 9-7 16-16 16l-160 0 0 80c0 9-7 16-16 16l-80 0c-9 0-16-7-16-16l0-80-48 0c-9 0-16-7-16-16l0-80-48 0c0 0 0 0 0 0-1 0-1 0-2 0-8-1-15-9-14-18l16-160c0 0 0 0 0 0 1-8 8-14 16-14l304 0c0 0 0 0 0 0 97 0 176 79 176 176 0 9-7 16-16 16z m-288 160l0-16-48 0 0 16z m-112-96l48 0c9 0 16 7 16 16l0 32 48 0 0-32c0-9 7-16 16-16l160 0 0-64-288 0z m240-224c0 0 0 0 0 0l-290 0-12 128 445 0c-8-72-69-128-143-128z m32 192c0-9-7-16-16-16-9 0-16 7-16 16 0 9 7 16 16 16 9 0 16-7 16-16z m-96 0c0-9-7-16-16-16-9 0-16 7-16 16 0 9 7 16 16 16 9 0 16-7 16-16z m48 0c0-9-7-16-16-16-9 0-16 7-16 16 0 9 7 16 16 16 9 0 16-7 16-16z"/>
<glyph glyph-name="sants-claus" unicode="&#35;" d="M240 240c0-9-7-16-16-16-9 0-16 7-16 16 0 9 7 16 16 16 9 0 16-7 16-16z m64 0c0-9-7-16-16-16-9 0-16 7-16 16 0 9 7 16 16 16 9 0 16-7 16-16z m-7-83c-7 5-17 3-22-4-4-6-11-9-19-9-8 0-15 3-19 9-5 7-15 9-22 4-7-5-9-15-4-22 10-15 27-23 45-23 18 0 35 8 45 23 5 7 3 17-4 22z m103 163c0 26-21 47-47 48l-56 71c4 7 7 16 7 25 0 26-22 48-48 48-26 0-48-22-48-48 0-9 3-18 7-25l-56-71c-26-1-47-22-47-48 0-16 8-30 20-39-13-21-20-46-20-73 0-40 17-76 43-102 14-52 71-106 101-106 30 0 87 54 101 106 26 26 43 62 43 102 0 27-7 52-20 73 12 9 20 23 20 39z m-144 96c6 0 11 1 16 3l40-51-112 0 40 51c5-2 10-3 16-3z m0 64c9 0 16-7 16-16 0-9-7-16-16-16-9 0-16 7-16 16 0 9 7 16 16 16z m-96-144l192 0c9 0 16-7 16-16 0-9-7-16-16-16l-192 0c-9 0-16 7-16 16 0 9 7 16 16 16z m96-304c-15 1-72 53-72 96 0 49 45 56 72 56 27 0 72-7 72-56 0-43-57-95-72-96z m100 125c-12 37-48 59-100 59-52 0-88-22-100-59-7 15-12 33-12 51 0 24 8 46 20 64l184 0c12-18 20-40 20-64 0-18-5-36-12-51z"/>
<glyph glyph-name="reindeer" unicode="&#36;" d="M240 192c0-9-7-16-16-16-9 0-16 7-16 16 0 9 7 16 16 16 9 0 16-7 16-16z m64 0c0-9-7-16-16-16-9 0-16 7-16 16 0 9 7 16 16 16 9 0 16-7 16-16z m192 304c0 9-7 16-16 16-9 0-16-7-16-16l0-112c0 0 0 0 0 0 0-9-7-16-16-16 0 0 0 0 0 0l-16 0 0 128c0 9-7 16-16 16-9 0-16-7-16-16l0-128-32 0 0 128c0 9-7 16-16 16-9 0-16-7-16-16l0-128c-35 0-64-29-64-64l-32 0c0 35-29 64-64 64l0 128c0 9-7 16-16 16-9 0-16-7-16-16l0-128-32 0 0 128c0 9-7 16-16 16-9 0-16-7-16-16l0-128-16 0c0 0 0 0 0 0-9 0-16 7-16 16 0 0 0 0 0 0l0 112c0 9-7 16-16 16-9 0-16-7-16-16l0-112c0 0 0 0 0 0 0-27 22-48 48-48 0 0 0 0 0 0l112 0c18 0 32-14 32-32l-32 0c-3 0-8 0-14 0-5 0-10-1-13-5l-104-101c-4-3-6-8-5-13 1-5 4-10 8-12 15-9 31-13 48-13 16 0 32 4 45 12l13-110c3-26 26-46 52-46l14 0c6-10 16-16 28-16l16 0c12 0 22 6 28 16l14 0c26 0 49 20 52 46l13 110c13-8 29-12 45-12 0 0 0 0 0 0 17 0 33 4 48 13 4 2 7 7 8 12 0 5-1 10-5 13l-104 101c-3 4-8 5-13 5-6 0-11 0-14 0l-32 0c0 18 14 32 32 32l112 0c0 0 0 0 0 0 26 0 48 21 48 48 0 0 0 0 0 0z m-360-288c-13-13-32-18-51-15l48 47 4-30c0-1-1-1-1-2z m280-16c0 0 0 0 0 0-15 0-29 6-40 16 0 1-1 1-1 2l4 30 48-47c-4-1-7-1-11-1z m-80 80c4 0 7-1 10-4 2-3 3-6 2-10l-22-192c-1-10-10-18-20-18l-14 0c-6 10-16 16-28 16l-16 0c-12 0-22-6-28-16l-14 0c-10 0-19 8-20 18l-22 192c-1 4 0 7 2 10 3 3 6 4 10 4z"/>
<glyph glyph-name="play-film" unicode="&#37;" d="M496 512l-480 0c-9 0-16-7-16-16l0-480c0-9 7-16 16-16l480 0c9 0 16 7 16 16l0 480c0 9-7 16-16 16z m-256-432l0-48-88 0 0 48z m32 0l88 0 0-48-88 0z m-240 32l0 288 448 0 0-288z m240 320l0 48 88 0 0-48z m-32 0l-88 0 0 48 88 0z m240 0l-88 0 0 48 88 0z m-448 48l88 0 0-48-88 0z m0-400l88 0 0-48-88 0z m448-48l-88 0 0 48 88 0z m-136 238l-128 80c-4 3-11 3-16 0-5-3-8-8-8-14l0-160c0-6 3-11 8-14 3-1 5-2 8-2 3 0 6 1 8 2l128 80c5 3 8 8 8 14 0 6-3 11-8 14z m-120-65l0 102 82-51z"/>
<glyph glyph-name="pie-chart-1" unicode="&#38;" d="M288 272l208 0c0 0 0 0 0 0 9 0 16 7 16 16 0 2 0 3 0 4-17 113-110 205-222 220-4 0-9-1-13-4-3-3-5-7-5-12l0-208c0-9 7-16 16-16z m16 205c85-19 154-88 173-173l-173 0z m192-237l-256 0 0 256c0 5-2 9-5 12-4 3-9 4-13 4-127-17-222-127-222-256 0-141 115-256 256-256 129 0 239 95 256 222 0 4-1 9-4 13-3 3-7 5-12 5z m-240-208c-124 0-224 100-224 224 0 107 74 199 176 221l0-253c0-9 7-16 16-16l253 0c-22-102-114-176-221-176z"/>
<glyph glyph-name="paper" unicode="&#39;" d="M176 368l160 0 0 0c9 0 16 7 16 16 0 9-7 16-16 16 0 0 0 0 0 0l-160 0c0 0 0 0 0 0-9 0-16-7-16-16 0-9 7-16 16-16z m0-80l160 0c9 0 16 7 16 16 0 9-7 16-16 16l-160 0c-9 0-16-7-16-16 0-9 7-16 16-16z m0-80l96 0c9 0 16 7 16 16 0 9-7 16-16 16l-96 0c-9 0-16-7-16-16 0-9 7-16 16-16z m272 304l-288 0c-35 0-64-29-64-64l32 0c0 18 14 32 32 32l233 0c-6-9-9-20-9-32l0-329c-9 6-20 9-32 9l-224 0 0 320-32 0 0-320-32 0c-35 0-64-29-64-64 0-35 29-64 64-64l0 0 288 0c0 0 0 0 0 0 35 0 64 29 64 64l0 329c9-6 20-9 32-9 35 0 64 29 64 64 0 35-29 64-64 64z m-416-448c0 18 14 32 32 32l233 0c-6-9-9-20-9-32 0-12 3-23 9-32l-233 0 0 0c-18 0-32 14-32 32z m320-32c-18 0-32 14-32 32 0 18 14 32 32 32 18 0 32-14 32-32 0-18-14-32-32-32z m96 384c-18 0-32 14-32 32 0 18 14 32 32 32 18 0 32-14 32-32 0-18-14-32-32-32z"/>
<glyph glyph-name="newspaper" unicode="&#40;" d="M464 440l-320 0c-26 0-48-22-48-48l0-32-48 0c-26 0-48-22-48-48l0-176c0-35 29-64 64-64l384 0c35 0 64 29 64 64l0 256c0 26-22 48-48 48z m-432-304l0 176c0 9 7 16 16 16l48 0 0-192c0-18-14-32-32-32-18 0-32 14-32 32z m416-32l-329 0c6 9 9 20 9 32l0 256c0 9 7 16 16 16l320 0c9 0 16-7 16-16l0-256c0-18-14-32-32-32z m-272 144l96 0c9 0 16 7 16 16l0 96c0 9-7 16-16 16l-96 0c-9 0-16-7-16-16l0-96c0-9 7-16 16-16z m16 96l64 0 0-64-64 0z m240 32l-112 0c-9 0-16-7-16-16 0-9 7-16 16-16l112 0c9 0 16 7 16 16 0 9-7 16-16 16z m0-48l-112 0c-9 0-16-7-16-16 0-9 7-16 16-16l112 0c9 0 16 7 16 16 0 9-7 16-16 16z m0-48l-112 0c-9 0-16-7-16-16 0-9 7-16 16-16l112 0c9 0 16 7 16 16 0 9-7 16-16 16z m0-64l-256 0c-9 0-16-7-16-16 0-9 7-16 16-16l256 0c9 0 16 7 16 16 0 9-7 16-16 16z m0-48l-256 0c-9 0-16-7-16-16 0-9 7-16 16-16l256 0c9 0 16 7 16 16 0 9-7 16-16 16z"/>
<glyph glyph-name="marker-location-3" unicode="&#41;" d="M312 376c0 31-25 56-56 56-31 0-56-25-56-56 0-31 25-56 56-56 31 0 56 25 56 56z m-80 0c0 13 11 24 24 24 13 0 24-11 24-24 0-13-11-24-24-24-13 0-24 11-24 24z m24-296c5 0 10 3 13 7 5 8 123 185 123 289 0 75-61 136-136 136-75 0-136-61-136-136 0-104 118-281 123-289 3-4 8-7 13-7z m0 400c57 0 104-47 104-104 0-75-73-201-104-250-31 49-104 175-104 250 0 57 47 104 104 104z m111-395c-3 8-12 13-20 10l-91-30-91 30c-8 3-17-2-20-10-3-8 2-17 10-20l50-17-50-17c-8-3-13-12-10-20 2-7 8-11 15-11 2 0 3 0 5 1l91 30 91-30c2-1 3-1 5-1 7 0 13 4 15 11 3 8-2 17-10 20l-50 17 50 17c8 3 13 12 10 20z"/>
<glyph glyph-name="light-rain" unicode="&#42;" d="M400 400c-8 0-15-1-23-2-26 41-71 66-121 66-63 0-118-41-137-99-7 2-15 3-23 3-53 0-96-43-96-96 0-53 43-96 96-96l24 0c9 0 16 7 16 16 0 9-7 16-16 16l-24 0c-35 0-64 29-64 64 0 35 29 64 64 64 10 0 19-2 27-6 5-2 10-2 15 0 4 2 7 6 8 11 10 53 56 91 110 91 42 0 80-23 99-60 4-7 12-11 20-8 8 3 16 4 25 4 44 0 80-36 80-80 0-44-36-80-80-80l-8 0c-9 0-16-7-16-16 0-9 7-16 16-16l8 0c62 0 112 50 112 112 0 62-50 112-112 112z m-216-176c-9 0-16-7-16-16l0-32c0-9 7-16 16-16 9 0 16 7 16 16l0 32c0 9-7 16-16 16z m48-16c-9 0-16-7-16-16l0-32c0-9 7-16 16-16 9 0 16 7 16 16l0 32c0 9-7 16-16 16z m48 16c-9 0-16-7-16-16l0-32c0-9 7-16 16-16 9 0 16 7 16 16l0 32c0 9-7 16-16 16z m48-16c-9 0-16-7-16-16l0-32c0-9 7-16 16-16 9 0 16 7 16 16l0 32c0 9-7 16-16 16z m-144-80c-9 0-16-7-16-16l0-32c0-9 7-16 16-16 9 0 16 7 16 16l0 32c0 9-7 16-16 16z m48-16c-9 0-16-7-16-16l0-32c0-9 7-16 16-16 9 0 16 7 16 16l0 32c0 9-7 16-16 16z m48 16c-9 0-16-7-16-16l0-32c0-9 7-16 16-16 9 0 16 7 16 16l0 32c0 9-7 16-16 16z m48-16c-9 0-16-7-16-16l0-32c0-9 7-16 16-16 9 0 16 7 16 16l0 32c0 9-7 16-16 16z"/>
<glyph glyph-name="house-2" unicode="&#43;" d="M491 315l-200 193c-6 5-16 5-22 0l-200-193c-6-6-7-17-1-23 7-6 17-6 23 0l21 20 0-94c-36-7-77-17-84-18-7-2-12-9-12-16l0-96c0-9 7-16 16-16l75 0c40-23 143-72 172-72 31 0 155 68 172 85 7 6 9 16 5 25-2 4-5 9-9 13 1 2 1 4 1 6l0 183 21-20c3-3 7-5 11-5 4 0 8 2 12 5 6 6 5 17-1 23z m-347 28l136 131 136-131 0-202c-8 3-16 4-23 4-6 0-11 0-15-2-9-3-18-6-26-10l0 155c0 9-7 16-16 16l-112 0c-9 0-16-7-16-16l0-80c-27 11-41 16-49 16-4 0-9 0-15-1z m176-187c-5 4-11 7-19 11-9 4-21 9-34 15-10 4-19 8-27 12l0 78 80 0z m-41-124c-17 0-114 42-160 70-2 1-5 2-8 2l-63 0 0 67c32 8 89 21 110 21 11-1 66-26 96-39 13-6 25-12 35-16 11-4 13-8 13-8l0 0c0-3-7-10-16-15l-64 29c-9 3-18 0-22-9-3-8 0-17 9-21l72-32c0 0 1 0 2-1 4-1 7-1 11-1 15 0 32 7 53 17 13 6 27 12 41 17 1 0 3 0 5 0 10 0 22-6 29-11-28-20-126-69-143-70z"/>
<glyph glyph-name="heart-1" unicode="&#44;" d="M256 24c-4 0-8 2-11 5l-203 207c-56 57-56 151 0 209 28 28 64 43 103 43 38 0 75-15 102-43 3-3 6-7 9-10 3 3 6 7 9 10 27 28 64 43 102 43 39 0 75-15 103-43 56-58 56-152 0-209l-203-207c-3-3-7-5-11-5z m-111 431c-30 0-59-12-80-33-44-45-44-118 0-163l191-196 191 196c44 44 44 118 0 163-21 21-50 33-80 33-30 0-58-12-80-33-6-7-12-15-17-24-3-5-8-8-14-8-6 0-11 3-14 8-5 9-11 17-18 24-21 21-49 33-79 33z"/>
<glyph glyph-name="glass" unicode="&#45;" d="M428 507c-3 3-8 5-12 5l-320 0c-4 0-9-2-12-5-3-3-4-8-4-12l13-155c0 0 0 0 0-1l27-324c1-9 8-15 16-15l240 0c8 0 15 6 16 15l40 480c0 4-1 9-4 12z m-29-27l-10-120c-2 0-3 0-5 0-26 0-49-13-64-32-15 19-38 32-64 32-26 0-49-13-64-32-15 19-38 32-64 32-2 0-3 0-5 0l-10 120z m-191-200c0 27 22 48 48 48 26 0 48-21 48-48l-15-248-66 0z m-82 48c1 0 1 0 2 0 26 0 48-22 48-48 0 0 0 0 0 0 0-1 0-1 0-1l15-247-40 0z m235-296l-40 0 15 247c0 0 0 0 0 1 0 0 0 0 0 0 0 26 22 48 48 48 1 0 1 0 2 0z"/>
<glyph glyph-name="firework" unicode="&#46;" d="M496 512l-192 0c-6 0-12-4-15-10-2-6-1-13 4-17l32-33c0 0 0 0 0-1l-200-200c-7-6-7-16 0-22l40-41-85-85 0 9c0 9-7 16-16 16-9 0-16-7-16-16l0-9-5 4c-6 7-16 7-22 0-7-6-7-16 0-22l4-5-9 0c-9 0-16-7-16-16 0-9 7-16 16-16l9 0-4-5c-7-6-7-16 0-22 3-3 7-5 11-5 4 0 8 2 11 5l5 4 0-9c0-9 7-16 16-16 9 0 16 7 16 16l0 9 5-4c3-3 7-5 11-5 4 0 8 2 11 5 7 6 7 16 0 22l-4 5 9 0c9 0 16 7 16 16 0 9-7 16-16 16l-9 0 85 85 41-40c3-3 7-5 11-5 4 0 8 2 11 5l200 200c1 0 1 0 1 0l33-32c3-3 7-5 11-5 2 0 4 0 6 1 6 3 10 9 10 15l0 192c0 9-7 16-16 16z m-149-83c1 0 1 0 1 0l4-4c0 0 0-1 0-1l0-152c0 0 0-1 0-1l-32-32 0 161c0 0 0 1 0 1z m-91-92l32 32 0-161c0 0 0-1 0-1l-32-32 0 161c0 0 0 1 0 1z m-32-32l0-130-65 65z m205 42l-45-44 0 90 45-45c0 0 0 0 0-1z m51-4l-137 137 137 0z"/>
<glyph glyph-name="egg-1" unicode="&#47;" d="M288 256c0-18-14-32-32-32-18 0-32 14-32 32 0 18 14 32 32 32 18 0 32-14 32-32z m-64 64c0-9-7-16-16-16-9 0-16 7-16 16 0 9 7 16 16 16 9 0 16-7 16-16z m96 0c0-9-7-16-16-16-9 0-16 7-16 16 0 9 7 16 16 16 9 0 16-7 16-16z m-96-128c0-9-7-16-16-16-9 0-16 7-16 16 0 9 7 16 16 16 9 0 16-7 16-16z m96 0c0-9-7-16-16-16-9 0-16 7-16 16 0 9 7 16 16 16 9 0 16-7 16-16z m64 64c0-18-14-32-32-32-18 0-32 14-32 32 0 18 14 32 32 32 18 0 32-14 32-32z m-192 0c0-18-14-32-32-32-18 0-32 14-32 32 0 18 14 32 32 32 18 0 32-14 32-32z m193 144c-35 72-81 112-129 112-48 0-94-40-129-112-29-60-47-137-47-200 0-121 69-200 176-200 107 0 176 79 176 200 0 63-18 140-47 200z m-221 0l184 0c3-5 6-10 9-16l-202 0c3 6 6 11 9 16z m92 80c25 0 50-19 72-48l-144 0c22 29 47 48 72 48z m-114-128l228 0c19-48 30-103 30-152 0-13-1-27-3-40l-282 0c-2 13-3 27-3 40 0 49 11 104 30 152z m241-240l-254 0c-2 5-4 11-6 16l266 0c-2-5-4-11-6-16z m-127-80c-50 0-85 19-108 48l216 0c-23-29-58-48-108-48z"/>
<glyph glyph-name="cross-1" unicode="&#58;" d="M384 384l-80 0 0 80c0 26-22 48-48 48-26 0-48-22-48-48l0-80-80 0 0 0c-26 0-48-22-48-48 0-26 22-48 48-48l0 0 80 0 0-240c0-26 22-48 48-48 26 0 48 22 48 48l0 240 80 0c26 0 48 22 48 48 0 26-22 48-48 48z m0-64l-96 0c-9 0-16-7-16-16l0-256c0-9-7-16-16-16-9 0-16 7-16 16l0 256c0 9-7 16-16 16l-96 0 0 0c-9 0-16 7-16 16 0 9 7 16 16 16l0 0 96 0c9 0 16 7 16 16l0 96c0 9 7 16 16 16 9 0 16-7 16-16l0-96c0-9 7-16 16-16l96 0c9 0 16-7 16-16 0-9-7-16-16-16z"/>
<glyph glyph-name="coffee" unicode="&#59;" d="M496 76l-480 0c-9 0-16-7-16-16 0-9 7-16 16-16l480 0c9 0 16 7 16 16 0 9-7 16-16 16z m-304 280c9 0 16 7 16 16 0 0 0 0 0 0l0 48c0 0 0 0 0 0 0 9-7 16-16 16-9 0-16-7-16-16l0-48c0-9 7-16 16-16z m128 0c9 0 16 7 16 16 0 0 0 0 0 0l0 48c0 0 0 0 0 0 0 9-7 16-16 16-9 0-16-7-16-16l0-48c0-9 7-16 16-16z m-64 0c9 0 16 7 16 16 0 0 0 0 0 0l0 80c0 0 0 0 0 0 0 9-7 16-16 16-9 0-16-7-16-16l0-80c0-9 7-16 16-16z m0-264c60 0 113 32 143 80l25 0c35 0 64 29 64 64 0 35-29 64-64 64l0 24c0 9-7 16-16 16l-304 0c-9 0-16-7-16-16l0-64c0-93 75-168 168-168z m200 144c0-22-10-32-32-32l-10 0c6 18 10 36 10 56l0 8c22 0 32-10 32-32z m-336 72l272 0 0-48c0-75-61-136-136-136-75 0-136 61-136 136z"/>
<glyph glyph-name="clear-day" unicode="&#60;" d="M256 416c-88 0-160-72-160-160 0-88 72-160 160-160 88 0 160 72 160 160 0 88-72 160-160 160z m0-288c-71 0-128 57-128 128 0 71 57 128 128 128 71 0 128-57 128-128 0-71-57-128-128-128z m0 304c9 0 16 7 16 16l0 48c0 9-7 16-16 16-9 0-16-7-16-16l0-48c0-9 7-16 16-16z m0-352c-9 0-16-7-16-16l0-48c0-9 7-16 16-16 9 0 16 7 16 16l0 48c0 9-7 16-16 16z m136 296c4 0 8 1 11 4l34 34c6 7 6 17 0 23-6 6-16 6-23 0l-34-34c-6-6-6-16 0-23 4-3 8-4 12-4z m-283-244l-34-34c-6-7-6-17 0-23 3-3 7-5 11-5 4 0 8 2 12 5l34 34c6 6 6 16 0 23-7 6-17 6-23 0z m0 248c3-3 7-4 11-4 4 0 8 1 12 4 6 7 6 17 0 23l-34 34c-7 6-17 6-23 0-6-6-6-16 0-23z m294-248c-6 6-16 6-23 0-6-7-6-17 0-23l34-34c4-3 8-5 12-5 4 0 8 2 11 5 6 6 6 16 0 23z m93 140l-48 0c-9 0-16-7-16-16 0-9 7-16 16-16l48 0c9 0 16 7 16 16 0 9-7 16-16 16z m-416-16c0 9-7 16-16 16l-48 0c-9 0-16-7-16-16 0-9 7-16 16-16l48 0c9 0 16 7 16 16z"/>
<glyph glyph-name="cemetery" unicode="&#61;" d="M508 82c-18 21-38 38-60 49l0 85 32 0c9 0 16 7 16 16 0 9-7 16-16 16l-32 0 0 40c0 9-7 16-16 16-9 0-16-7-16-16l0-40-32 0c-9 0-16-7-16-16 0-9 7-16 16-16l32 0 0-71c-16 5-32 7-48 7 0 0-1 0-1 0-30 18-62 29-95 31l0 129 36 0c6-10 16-16 28-16 18 0 32 14 32 32 0 18-14 32-32 32-12 0-22-6-28-16l-36 0 0 52c10 6 16 16 16 28 0 18-14 32-32 32-18 0-32-14-32-32 0-12 6-22 16-28l0-52-36 0c-6 10-16 16-28 16-18 0-32-14-32-32 0-18 14-32 32-32 12 0 22 6 28 16l36 0 0-129c-33-2-65-13-95-31 0 0-1 0-1 0-16 0-32-2-48-7l0 71 32 0c9 0 16 7 16 16 0 9-7 16-16 16l-32 0 0 40c0 9-7 16-16 16-9 0-16-7-16-16l0-40-32 0c-9 0-16-7-16-16 0-9 7-16 16-16l32 0 0-85c-22-11-42-28-60-49-6-6-5-16 2-22 3-3 6-4 10-4 4 0 9 2 12 6 19 21 40 37 63 47-8-8-16-17-24-27-5-7-4-17 3-23 7-5 17-4 23 3 45 58 103 90 163 90 60 0 118-32 163-90 4-4 8-6 13-6 3 0 7 1 10 3 7 6 8 16 3 23-8 10-16 19-24 27 23-10 44-26 63-47 3-4 8-6 12-6 4 0 7 1 10 4 7 6 8 16 2 22z"/>
<glyph glyph-name="candle-1" unicode="&#62;" d="M408 160c-26 0-48-22-48-48 0-6 1-11 3-16l-51 0 0 256c0 9-7 16-16 16l-48 0 0 19c19 6 32 22 32 42 0 28-29 69-35 77-3 4-8 6-13 6-5 0-10-2-13-6-6-8-35-49-35-77 0-20 13-36 32-42l0-19-48 0c-9 0-16-7-16-16l0-256-80 0c-6 0-11-3-14-8-3-4-3-10 0-15l32-64c2-6 8-9 14-9l256 0c6 0 12 3 14 9l28 55c2 0 4 0 6 0 26 0 48 22 48 48 0 26-22 48-48 48z m-176 307c8-14 16-30 16-38 0-7-7-13-16-13-9 0-16 6-16 13 0 8 7 24 16 38z m-48-131l96 0 0-19c-5 2-10 3-16 3-26 0-48-22-48-48 0-9-7-16-16-16-9 0-16 7-16 16z m0-109c5-2 10-3 16-3 26 0 48 22 48 48 0 9 7 16 16 16 9 0 16-7 16-16l0-176-96 0z m166-195l-236 0-16 32 268 0z m58 64c-9 0-16 7-16 16 0 9 7 16 16 16 9 0 16-7 16-16 0-9-7-16-16-16z"/>
<glyph glyph-name="bus-1" unicode="&#63;" d="M496 392l-32 0 0 16c0 44-36 80-80 80 0 0 0 0 0 0l-256 0c-44 0-80-36-80-80l0-16-32 0c-9 0-16-7-16-16l0-80c0-9 7-16 16-16l32 0 0-48c0 0 0 0 0 0l0-144c0-9 7-16 16-16l24 0 0-32c0-9 7-16 16-16l64 0c9 0 16 7 16 16l0 32 144 0 0-32c0-9 7-16 16-16l64 0c9 0 16 7 16 16l0 32 24 0c9 0 16 7 16 16l0 192 32 0c9 0 16 7 16 16l0 80c0 9-7 16-16 16z m-416-288l0 112 352 0 0-112z m352 256l0-112-160 0 0 112z m-192-112l-160 0 0 112 160 0z m-112 208l256 0c0 0 0 0 0 0 26 0 48-22 48-48l0-16-352 0 0 16c0 26 22 48 48 48z m-96-144l0 48 16 0 0-48z m120-256l-32 0 0 16 32 0z m240 0l-32 0 0 16 32 0z m88 256l-16 0 0 48 16 0z m-320-152c0-13-11-24-24-24-13 0-24 11-24 24 0 13 11 24 24 24 13 0 24-11 24-24z m240 0c0-13-11-24-24-24-13 0-24 11-24 24 0 13 11 24 24 24 13 0 24-11 24-24z m-200 248l112 0c9 0 16 7 16 16 0 9-7 16-16 16l-112 0c-9 0-16-7-16-16 0-9 7-16 16-16z"/>
<glyph glyph-name="bowling-pin" unicode="&#64;" d="M313 296l-5 13c-8 21-12 30-12 51 0 11 3 25 7 40 4 18 9 37 9 56 0 31-25 56-56 56-31 0-56-25-56-56 0-15 4-31 8-47 4-17 8-34 8-49 0-21-4-30-12-51l-5-13c-17-41-39-96-39-160 0-67 33-102 57-127l3-4c3-3 8-5 12-5l48 0c4 0 9 2 12 5l3 4c24 25 57 60 57 127 0 64-22 119-39 160z m-66 48l18 0c0-6 1-11 3-16l-23 0c1 5 2 10 2 16z m9 136c13 0 24-11 24-24 0-15-4-32-8-49-3-10-5-21-7-31l-18 0c-2 13-5 27-8 40-4 15-7 29-7 40 0 13 11 24 24 24z m17-448l-34 0c-22 23-47 50-47 104 0 57 21 110 36 148l5 12 46 0 5-12c15-38 36-91 36-148 0-54-25-81-47-104z"/>
<glyph glyph-name="bat" unicode="&#91;" d="M387 438c-4 2-9 3-14 1-4-2-8-6-9-10-7-23-24-43-46-55-2 13-10 25-20 34l12 25c4 8 1 17-7 21-8 4-17 1-21-7l-13-24c-4 0-8 1-13 1-5 0-9-1-13-1l-13 24c-4 8-13 11-21 7-8-4-11-13-7-21l12-25c-10-9-18-21-20-34-22 12-39 32-46 55-1 4-5 8-9 10-5 2-10 1-14-1-77-41-125-116-125-196 0-11 1-21 3-32 0-5 3-8 6-11 4-2 8-3 12-2 24 4 48-7 56-26 3-7 10-11 17-10 25 5 49-8 56-28 2-5 5-8 9-10 4-2 8-2 12 0 7 2 14 4 21 4 25 0 48-31 48-55 0-9 7-16 16-16 9 0 16 7 16 16 0 24 23 55 48 55 7 0 14-2 21-4 4-2 8-2 12 0 4 2 7 5 9 10 7 20 31 33 56 28 7-1 14 3 17 10 8 19 32 30 56 26 4-1 8 0 12 2 3 3 6 6 6 11 2 11 3 21 3 32 0 80-48 155-125 196z m-131-46c17 0 31-14 32-31-10-3-21-4-32-4-11 0-22 1-32 4 1 17 15 31 32 31z m224-162c-29-1-55-14-69-36-31 1-59-13-73-37-6 1-12 2-18 2-27 0-50-16-64-38-14 22-37 38-64 38-6 0-12-1-18-2-14 24-42 38-73 37-14 22-40 35-69 36 0 4 0 8 0 12 0 64 34 122 93 159 23-46 74-76 131-76 57 0 108 30 131 76 59-37 93-95 93-159 0-4 0-8 0-12z"/>
<glyph glyph-name="beach" unicode="&#93;" d="M320 400l18 0c2-6 4-11 7-16l-13-13c-6-7-6-17 0-23 3-3 7-5 11-5 5 0 9 2 12 5l13 13c5-3 10-5 16-7l0-18c0-9 7-16 16-16 9 0 16 7 16 16l0 18c6 2 11 4 16 7l13-13c3-3 7-5 12-5 4 0 8 2 11 5 6 6 6 16 0 23l-13 13c3 5 5 10 7 16l18 0c9 0 16 7 16 16 0 9-7 16-16 16l-18 0c-2 6-4 11-7 16l13 13c6 7 6 17 0 23-6 6-16 6-23 0l-13-13c-5 3-10 5-16 7l0 18c0 9-7 16-16 16-9 0-16-7-16-16l0-18c-6-2-11-4-16-7l-13 13c-7 6-17 6-23 0-6-6-6-16 0-23l13-13c-3-5-5-10-7-16l-18 0c-9 0-16-7-16-16 0-9 7-16 16-16z m80 48c18 0 32-14 32-32 0-18-14-32-32-32-18 0-32 14-32 32 0 18 14 32 32 32z m85-417c-4 2-104 33-229 33-28 0-55-2-80-4l0 164 112 0c9 0 16 7 16 16 0 74-56 135-128 143l0 17c0 9-7 16-16 16-9 0-16-7-16-16l0-17c-72-8-128-69-128-143 0-9 7-16 16-16l112 0 0-168c-68-9-114-24-117-25-8-2-13-11-10-20 2-8 11-13 20-10 1 0 99 31 219 31 120 0 218-31 219-31 2-1 3-1 5-1 7 0 13 4 15 11 3 9-2 18-10 20z m-325 321c9 0 29-34 32-96l-64 0c3 62 23 96 32 96z m111-96l-47 0c-2 32-8 62-18 86 34-16 59-48 65-86z m-157 86c-10-24-16-54-18-86l-47 0c6 38 31 70 65 86z"/>
<glyph glyph-name="brandenburg-gate" unicode="&#94;" d="M496 264c9 0 16 7 16 16l0 48c0 9-7 16-16 16l-56 0 0 32c0 9-7 16-16 16l-112 0 0 16c0 7-5 13-11 15 12 10 19 23 19 37 0 9-7 16-16 16-9 0-16-7-16-16 0-6-6-13-16-17l0 29c0 9-7 16-16 16-9 0-16-7-16-16l0-29c-10 4-16 11-16 17 0 9-7 16-16 16-9 0-16-7-16-16 0-14 7-27 19-37-6-2-11-8-11-15l0-16-112 0c-9 0-16-7-16-16l0-32-56 0c-9 0-16-7-16-16l0-48c0-9 7-16 16-16l16 0 0-208-16 0c-9 0-16-7-16-16 0-9 7-16 16-16l480 0c9 0 16 7 16 16 0 9-7 16-16 16l-16 0 0 208z m-88 96l0-16-96 0 0 16z m-128-16l-48 0 0 48 48 0z m-176 16l96 0 0-16-96 0z m-72-48l448 0 0-16-448 0z m136-48l0-208-40 0 0 208z m32 0l120 0 0-208-120 0z m152 0l32 0 0-208-32 0z m-288 0l32 0 0-208-32 0z m384-208l-32 0 0 208 32 0z"/>
<glyph glyph-name="bus-2" unicode="&#95;" d="M509 289l-72 104c-3 4-8 7-13 7l-128 0c0 0 0 0 0 0 0 0 0 0 0 0l-144 0c0 0 0 0 0 0l-136 0c-9 0-16-7-16-16l0-216c0-9 7-16 16-16l50 0c7-23 29-40 54-40 25 0 47 17 54 40l156 0c7-23 29-40 54-40 25 0 47 17 54 40l58 0c9 0 16 7 16 16l0 112c0 3-1 6-3 9z m-197 79l104 0 49-72-153 0z m-144 0l112 0 0-72-112 0z m-136 0l104 0 0-72-104 0z m88-224c-13 0-24 11-24 24 0 13 11 24 24 24 13 0 24-11 24-24 0-13-11-24-24-24z m264 0c-13 0-24 11-24 24 0 13 11 24 24 24 13 0 24-11 24-24 0-13-11-24-24-24z m96 40l-42 0c-7 23-29 40-54 40-25 0-47-17-54-40l-156 0c-7 23-29 40-54 40-25 0-47-17-54-40l-34 0 0 80 448 0z"/>
<glyph glyph-name="bush-al-arab" unicode="&#96;" d="M384 32l-49 0c11 37 17 76 17 116 0 39-6 78-16 113 0 1 0 2 0 3l0 24c0 18 14 32 32 32 9 0 16 7 16 16 0 9-7 16-16 16l-74 0c-27 41-62 73-102 91l0 53c0 9-7 16-16 16-9 0-16-7-16-16l0-144-16 0c-9 0-16-7-16-16 0-9 7-16 16-16l16 0 0-288-32 0c-9 0-16-7-16-16 0-9 7-16 16-16l185 0c0 0 0 0 0 0 0 0 0 0 0 0l71 0c9 0 16 7 16 16 0 9-7 16-16 16z m-192 176l123 0c3-19 5-39 5-60 0-1 0-3 0-4l-128 0z m0 199c23-13 45-32 63-55l-63 0z m84-87c14-24 25-51 32-80l-116 0 0 80z m-84-208l126 0c-2-28-8-54-17-80l-109 0z"/>
<glyph glyph-name="bear" unicode="&#123;" d="M352 304c0-18-14-32-32-32-18 0-32 14-32 32 0 18 14 32 32 32 18 0 32-14 32-32z m-128 0c0-18-14-32-32-32-18 0-32 14-32 32 0 18 14 32 32 32 18 0 32-14 32-32z m80-144c-16 0-29 11-31 26l26 27c5 4 6 11 4 17-3 6-9 10-15 10l-64 0c-6 0-12-4-15-10-2-6-1-13 4-17l26-27c-2-15-15-26-31-26-9 0-16-7-16-16 0-9 7-16 16-16 19 0 36 8 48 22 12-14 29-22 48-22 9 0 16 7 16 16 0 9-7 16-16 16z m145 199c28 13 47 41 47 73 0 44-36 80-80 80-32 0-61-19-73-48l-174 0c-12 29-41 48-73 48-44 0-80-36-80-80 0-32 19-60 47-73l-29-129c-8-34 7-80 31-99l145-112c16-13 31-19 46-19 15 0 30 6 47 19l144 112c25 20 38 61 31 95z m-2-139c4-22-5-52-20-63l-144-113c-11-8-19-12-27-12-8 0-16 4-27 12l-144 113c-15 11-25 44-20 66l35 159-15 3c-22 5-37 25-37 47 0 26 22 48 48 48 22 0 41-15 46-36l4-12 221 0 3 12c5 21 24 36 46 36 26 0 48-22 48-48 0-22-15-42-37-47l-15-3z"/>
<glyph glyph-name="bread" unicode="&#124;" d="M512 392c0 0 0 0 0 0 0 44-36 80-80 80 0 0 0 0 0 0l-352 0c0 0 0 0 0 0-44 0-80-36-80-80 0 0 0 0 0 0 0-34 27-63 56-75l-8-228c0-1 0-1 0-1 0 0 0 0 0 0 0-26 22-48 48-48l320 0c26 0 48 22 48 48 0 0 0 0 0 0 0 0 0 0 0 1l-8 228c29 12 56 41 56 75z m-76-49c-7-1-12-8-12-15 0 0 0 0 0 0l8-240c0-9-7-16-16-16l-320 0c-9 0-16 7-16 16l8 239c0 8-5 15-12 17-21 5-44 26-44 48 0 0 0 0 0 0 0 26 22 48 48 48 0 0 0 0 0 0l352 0c0 0 0 0 0 0 26 0 48-21 48-48 0 0 0 0 0 0 0-22-23-43-44-49z"/>
<glyph glyph-name="briefcase" unicode="&#125;" d="M464 416l-112 0c0 53-43 96-96 96-53 0-96-43-96-96l-112 0c-26 0-48-22-48-48l0-112c0-21 13-39 32-45l0-163c0-26 22-48 48-48l352 0c26 0 48 22 48 48l0 163c19 6 32 24 32 45l0 112c0 26-22 48-48 48z m-208 64c35 0 64-29 64-64l-128 0c0 35 29 64 64 64z m176-448l-352 0c-9 0-16 7-16 16l0 160 136 0 0-16c0-12 12-24 24-24l64 0c12 0 24 12 24 24l0 16 136 0 0-160c0-9-7-16-16-16z m-200 168l0 48 48 0 0-48z m248 56c0-9-7-16-16-16l-152 0 0 16c0 12-12 24-24 24l-64 0c-12 0-24-12-24-24l0-16-152 0c-9 0-16 7-16 16l0 112c0 9 7 16 16 16l416 0c9 0 16-7 16-16z"/>
<glyph glyph-name="bee" unicode="&#126;" d="M455 273c-26 31-78 60-122 80 2 8 3 15 3 23 0 41-26 76-61 85 5 11 16 19 29 19 9 0 16 7 16 16 0 9-7 16-16 16-19 0-36-8-48-22-12 14-29 22-48 22-9 0-16-7-16-16 0-9 7-16 16-16 13 0 24-8 29-19-35-9-61-44-61-85 0-8 1-15 3-23-44-20-96-49-122-80-36-44-33-107 6-140 16-14 36-21 57-21 10 0 19 2 28 4 18-54 55-98 102-115 2-1 4-1 6-1 2 0 4 0 5 1 47 17 85 61 103 115 9-2 18-4 28-4 21 0 41 7 57 21 39 33 41 96 6 140z m-231-81l64 0c6-12 12-23 18-32l-100 0c6 9 12 20 18 32z m13 32c7 22 14 44 19 65 5-21 11-43 19-65z m-29 152c0 31 21 56 48 56 26 0 48-25 48-56 0-3 0-6-1-9-23 9-39 15-42 16 0 0 0 0 0 0 0 0 0 0 0 0 0 0 0 0 0 0l0 0c-3 1-7 1-10 0 0 0 0 0 0 0 0 0-1 0-1 0 0 0 0 0 0 0 0 0 0 0 0 0-2-1-19-7-41-16-1 3-1 6-1 9z m-124-219c-26 22-27 65-2 95 31 38 111 74 153 91-9-45-29-134-60-172-15-17-35-27-55-27-14 0-26 5-36 13z m172-124c-16 7-30 18-42 31l84 0c-12-13-26-24-42-31z m65 63l-130 0c-5 10-10 21-13 32l156 0c-4-11-8-22-13-32z m107 61c-10-8-23-13-36-13-21 0-41 10-55 27-31 38-51 127-60 172 42-17 122-53 153-91 25-30 24-73-2-95z"/>
<glyph glyph-name="beer" unicode="&#92;" d="M232 272c-9 0-16-7-16-16l0-160c0-9 7-16 16-16 9 0 16 7 16 16 0 0 0 0 0 0l0 160c0 0 0 0 0 0 0 9-7 16-16 16z m80 0c-9 0-16-7-16-16l0-160c0-9 7-16 16-16 9 0 16 7 16 16 0 0 0 0 0 0l0 160c0 0 0 0 0 0 0 9-7 16-16 16z m-160 0c-9 0-16-7-16-16l0-160c0-9 7-16 16-16 9 0 16 7 16 16 0 0 0 0 0 0l0 160c0 0 0 0 0 0 0 9-7 16-16 16z m296 24c0 0 0 0 0 0l-32 0 0 40c19 15 32 38 32 64 0 44-36 80-80 80-16 0-32-5-46-14-20 28-54 46-90 46-36 0-70-18-90-46-14 9-30 14-46 14-44 0-80-36-80-80 0-26 13-49 32-64l0-288c0-26 22-48 48-48l272 0c26 0 48 22 48 48l0 56 32 0c26 0 48 22 48 48l0 96c0 0 0 0 0 0 0 26-22 48-48 48z m-352 152c14 0 28-6 37-17 3-5 9-7 14-6 6 1 10 4 13 9 13 28 41 46 72 46 31 0 59-18 72-46 3-5 7-8 13-9 5-1 11 1 14 6 9 11 23 17 37 17 26 0 48-22 48-48 0-26-22-48-48-48-14 0-28 6-37 17-3 5-9 7-14 6-6-1-10-4-13-9-13-28-41-46-72-46-31 0-59 18-72 46-3 5-7 8-13 9 0 0-1 0-2 0-4 0-9-2-12-6-9-11-23-17-37-17-26 0-48 22-48 48 0 26 22 48 48 48z m272-416l-272 0c-9 0-16 7-16 16l0 274c5-1 11-2 16-2 16 0 32 5 46 14 20-28 54-46 90-46 36 0 70 18 90 46 14-9 30-14 46-14 5 0 11 1 16 2l0-274c0-9-7-16-16-16z m96 216l0-96c0-9-7-16-16-16l-32 0 0 128 32 0c0 0 0 0 0 0l0 0c9 0 16-7 16-16 0 0 0 0 0 0z"/>
<glyph glyph-name="briefcase-1" unicode="&#57344;" d="M464 432l-128 0c0 44-36 80-80 80-44 0-80-36-80-80l-128 0c-26 0-48-22-48-48l0-112c0-21 13-39 32-45l0-179c0-26 22-48 48-48l352 0c26 0 48 22 48 48l0 179c19 6 32 24 32 45l0 112c0 26-22 48-48 48z m-208 48c26 0 48-22 48-48l-96 0c0 26 22 48 48 48z m176-448l-352 0c-9 0-16 7-16 16l0 176 48 0 0-24c0-9 7-16 16-16l80 0c9 0 16 7 16 16l0 24 64 0 0-24c0-9 7-16 16-16l80 0c9 0 16 7 16 16l0 24 48 0 0-176c0-9-7-16-16-16z m-288 184l0 48 48 0 0-48z m176 0l0 48 48 0 0-48z m160 56c0-9-7-16-16-16l-64 0 0 24c0 9-7 16-16 16l-80 0c-9 0-16-7-16-16l0-24-64 0 0 24c0 9-7 16-16 16l-80 0c-9 0-16-7-16-16l0-24-64 0c-9 0-16 7-16 16l0 112c0 9 7 16 16 16l416 0c9 0 16-7 16-16z"/>
<glyph glyph-name="browser" unicode="&#57345;" d="M464 472l-416 0c-26 0-48-22-48-48l0-336c0-26 22-48 48-48l416 0c26 0 48 22 48 48l0 336c0 26-22 48-48 48z m16-384c0-9-7-16-16-16l-416 0c-9 0-16 7-16 16l0 224 448 0z m0 256l-448 0 0 80c0 9 7 16 16 16l416 0c9 0 16-7 16-16z m-384 48c0-9-7-16-16-16-9 0-16 7-16 16 0 9 7 16 16 16 9 0 16-7 16-16z m64 0c0-9-7-16-16-16-9 0-16 7-16 16 0 9 7 16 16 16 9 0 16-7 16-16z m64 0c0-9-7-16-16-16-9 0-16 7-16 16 0 9 7 16 16 16 9 0 16-7 16-16z"/>
<glyph glyph-name="bible" unicode="&#57346;" d="M392 512l-248 0 0 0c-40 0-72-32-72-72l0 0 0 0 0-368 0 0c0-40 32-72 72-72l0 0 248 0c26 0 48 22 48 48l0 416c0 26-22 48-48 48z m-288-72c0 22 18 40 40 40l0-336c-15 0-29-4-40-12l0 308z m304-392c0-9-7-16-16-16l-248 0 0 0 0 0c-22 0-40 18-40 40l0 0 0 0c0 22 18 40 40 40l248 0c6 0 11 1 16 3z m0 112c0-9-7-16-16-16l-216 0 0 336 216 0c9 0 16-7 16-16z m-72 192l-32 0 0 40c0 9-7 16-16 16-9 0-16-7-16-16l0-40-32 0c-9 0-16-7-16-16 0-9 7-16 16-16l32 0 0-88c0-9 7-16 16-16 9 0 16 7 16 16l0 88 32 0c9 0 16 7 16 16 0 9-7 16-16 16z"/>
<glyph glyph-name="bicycle" unicode="&#57347;" d="M416 288c-14 0-27-3-38-8l-85 129c-3 4-8 7-13 7 0 0 0 0 0 0l-48 0c-9 0-16-7-16-16 0-9 7-16 16-16l39 0 43-65-115-13-9 14 10 0c9 0 16 7 16 16 0 9-7 16-16 16l-40 0c0 0 0 0 0 0l-24 0c-9 0-16-7-16-16 0-9 7-16 16-16l15 0 14-20c0-1-1-1-1-2l-20-23c-14 8-30 13-48 13-53 0-96-43-96-96 0-53 43-96 96-96 47 0 87 35 95 80l65 0c6 0 11 3 13 7 0 0 0 0 0 0l66 103 16-24c-19-17-31-42-31-70 0-53 43-96 96-96 53 0 96 43 96 96 0 53-43 96-96 96z m-268-59c4-6 8-13 10-21l-28 0z m-52-101c-35 0-64 29-64 64 0 35 29 64 64 64 10 0 19-2 27-6l-39-48c-6-7-5-17 2-22 3-3 6-4 10-4l62 0c-7-28-32-48-62-48z m95 80c-3 18-11 33-22 46l14 18 43-64z m65 13l-37 55 78 9z m160-93c-35 0-64 29-64 64 0 17 6 32 17 43l34-52c3-4 8-7 13-7 3 0 6 1 9 3 7 4 9 14 4 22l-33 52c6 2 13 3 20 3 35 0 64-29 64-64 0-35-29-64-64-64z"/>
<glyph glyph-name="building-1" unicode="&#57348;" d="M440 294l0 18c0 9-7 16-16 16-9 0-16-7-16-16l0-18c-15-3-29-10-40-20l0 94c0 56-42 103-96 111l0 17c0 9-7 16-16 16-9 0-16-7-16-16l0-17c-54-8-96-55-96-111l0-94c-11 10-25 17-40 20l0 18c0 9-7 16-16 16-9 0-16-7-16-16l0-18c-41-8-72-47-72-94l0-184c0-9 7-16 16-16l480 0c9 0 16 7 16 16l0 184c0 47-31 86-72 94z m-16-30c26 0 48-20 54-48l-108 0c6 28 28 48 54 48z m-168 184c39 0 71-28 78-64l-156 0c7 36 39 64 78 64z m-168-184c26 0 48-20 54-48l-108 0c6 28 28 48 54 48z m120-232l0 80c0 26 22 48 48 48 26 0 48-22 48-48l0-80z m272 0l-144 0 0 80c0 44-36 80-80 80-44 0-80-36-80-80l0-80-144 0 0 152 128 0c9 0 16 7 16 16l0 152 160 0 0-152c0-9 7-16 16-16l128 0z"/>
<glyph glyph-name="building-2" unicode="&#57349;" d="M256 376c-26 0-48-22-48-48 0-26 22-48 48-48 26 0 48 22 48 48 0 26-22 48-48 48z m0-64c-9 0-16 7-16 16 0 9 7 16 16 16 9 0 16-7 16-16 0-9-7-16-16-16z m243-64l-131 29 0 123c0 7-4 13-11 15l-85 29 0 52c0 9-7 16-16 16-9 0-16-7-16-16l0-52-85-29c-7-2-11-8-11-15l0-123-131-29c-8-2-13-8-13-16l0-216c0-9 7-16 16-16l480 0c9 0 16 7 16 16l0 216c0 8-5 14-13 16z m-387-112c0 9 7 16 16 16 9 0 16-7 16-16l0-104-32 0z m128 0c0 9 7 16 16 16 9 0 16-7 16-16l0-104-32 0z m128 0c0 9 7 16 16 16 9 0 16-7 16-16l0-104-32 0z m112-104l-48 0 0 104c0 26-22 48-48 48-26 0-48-22-48-48l0-104-32 0 0 104c0 26-22 48-48 48-26 0-48-22-48-48l0-104-32 0 0 104c0 26-22 48-48 48-26 0-48-22-48-48l0-104-48 0 0 187 131 29c8 2 13 8 13 16l0 124 80 27 80-27 0-124c0-8 5-14 13-16l131-29z"/>
<glyph glyph-name="big-ben" unicode="&#57350;" d="M256 352c-18 0-32-14-32-32 0-18 14-32 32-32 18 0 32 14 32 32 0 18-14 32-32 32z m0-48c-9 0-16 7-16 16 0 9 7 16 16 16 9 0 16-7 16-16 0-9-7-16-16-16z m64 96l-21 0-27 67 0 29c0 9-7 16-16 16-9 0-16-7-16-16l0-29-27-67-21 0c-9 0-16-7-16-16l0-128c0-9 7-16 16-16l8 0 0-224c0-9 7-16 16-16l80 0c9 0 16 7 16 16l0 224 8 0c9 0 16 7 16 16l0 128c0 9-7 16-16 16z m-112-128l0 96 80 0c0 0 0 0 0 0 0 0 0 0 0 0l16 0 0-96z m48 149l8-21-16 0z m24-309l-48 0 0 48 48 0z m0-80l-48 0 0 48 48 0z m0 160l-48 0 0 48 48 0z"/>
<glyph glyph-name="bluetooth" unicode="&#57351;" d="M256 0c-2 0-4 0-6 1-6 3-10 8-10 15l0 209-101-89c-7-6-17-5-23 1-6 7-5 17 1 23l115 100-115 100c-6 6-7 16-1 23 6 6 16 7 23 1l101-89 0 201c0 6 4 12 10 15 6 2 13 1 17-4l128-124c3-3 5-7 5-11 0-5-2-9-5-12l-115-100 115-100c3-3 5-7 5-11 0-5-1-9-5-12l-128-132c-3-3-7-5-11-5z m16 225l0-170 89 92z m0 233l0-163 88 78z"/>
<glyph glyph-name="building-office" unicode="&#57352;" d="M416 448l-48 0 0 48c0 9-7 16-16 16l-192 0c-9 0-16-7-16-16l0-48-48 0c-9 0-16-7-16-16l0-416c0-9 7-16 16-16l320 0c9 0 16 7 16 16l0 416c0 9-7 16-16 16z m-240 32l160 0 0-32-160 0z m224-448l-288 0 0 384 288 0z m-240 352c-9 0-16-7-16-16l0-288c0-9 7-16 16-16 9 0 16 7 16 16l0 288c0 9-7 16-16 16z m64 0c-9 0-16-7-16-16l0-288c0-9 7-16 16-16 9 0 16 7 16 16l0 288c0 9-7 16-16 16z m112-16l0-288c0-9 7-16 16-16 9 0 16 7 16 16l0 288c0 9-7 16-16 16-9 0-16-7-16-16z m-48 16c-9 0-16-7-16-16l0-288c0-9 7-16 16-16 9 0 16 7 16 16l0 288c0 9-7 16-16 16z"/>
<glyph glyph-name="bulb" unicode="&#57353;" d="M375 463c-32 32-74 49-119 49-45 0-87-17-119-49-32-32-49-74-49-119 0-66 37-124 96-152l0-120c0-19 7-37 21-51 14-14 32-21 51-21 19 0 37 7 51 21 14 14 21 32 21 51l0 120c59 28 96 86 96 152 0 45-17 87-49 119z m-91-419c-7-8-17-12-28-12-11 0-21 4-28 12-8 7-12 17-12 28l0 24 80 0 0-24c0-11-4-21-12-28z m22 174l-10-4 0-86-80 0 0 86-10 4c-52 20-86 70-86 126 0 36 14 70 40 96 26 26 60 40 96 40 36 0 70-14 96-40 26-26 40-60 40-96 0-56-34-106-86-126z"/>
<glyph glyph-name="book" unicode="&#57354;" d="M448 464c0 26-22 48-48 48l-264 0 0 0c-40 0-72-32-72-72l0 0 0 0 0-368c0-40 32-72 72-72l0 0 264 0c26 0 48 22 48 48l0 416z m-352-24c0 22 18 40 40 40l0-336c-15 0-29-4-40-12l0 308z m320-392c0-9-7-16-16-16l-264 0 0 0 0 0c-22 0-40 18-40 40l0 0 0 0c0 22 18 40 40 40l264 0c6 0 11 1 16 3l0-67z m0 112c0-9-7-16-16-16l-232 0 0 336 232 0c9 0 16-7 16-16l0 0 0-304z"/>
<glyph glyph-name="bulb-1" unicode="&#57355;" d="M256 512c-93 0-168-75-168-168 0-50 22-97 60-129 1-1 2-1 3-2 26-18 41-43 41-69l0-80c0-9 7-16 16-16l0-16c0-18 14-32 32-32l32 0c18 0 32 14 32 32l0 16c9 0 16 7 16 16l0 80c0 26 15 51 41 69 1 1 2 1 3 2 38 32 60 79 60 129 0 93-75 168-168 168z m16-480l-32 0 0 16 32 0z m16 48l-64 0 0 48 64 0z m54 158c0 0 0 0-1 0-28-20-47-48-52-78l-16 0 0 137 44 44c6 6 6 16 0 22-7 7-17 7-23 0l-37-36-36 36c-7 7-17 7-23 0-6-6-6-16 0-22l43-44 0-137-18 0c-5 30-24 57-52 78-1 0-1 0-1 0-32 26-50 65-50 106 0 75 61 136 136 136 75 0 136-61 136-136 0-41-18-80-50-106z"/>
<glyph glyph-name="bookmark" unicode="&#57356;" d="M400 512l-264 0 0 0c-40 0-72-32-72-72l0 0 0 0 0-368c0-40 32-72 72-72l0 0 264 0c26 0 48 22 48 48l0 416c0 26-22 48-48 48z m-152-32l80 0 0-117-30 25c-6 5-14 5-20 0l-30-26z m168-432c0-9-7-16-16-16l-264 0 0 0 0 0c-22 0-40 18-40 40l0 0 0 0c0 22 18 40 40 40l264 0c6 0 11 1 16 3z m0 112c0-9-7-16-16-16l-264 0c-15 0-29-4-40-12l0 308 0 0 0 0c0 22 18 40 40 40l0 0 80 0 0-153c0-6 4-11 9-14 2-1 5-2 7-2 4 0 8 2 10 4l46 40 46-39c4-4 11-5 17-3 5 3 9 9 9 15l0 152 40 0c9 0 16-7 16-16z"/>
<glyph glyph-name="bottle" unicode="&#57357;" d="M304 382l0 114c0 9-7 16-16 16l-64 0c-9 0-16-7-16-16l0-114c-32-7-56-36-56-70l0-296c0-9 7-16 16-16l176 0c9 0 16 7 16 16l0 296c0 34-24 63-56 70z m-32 98l0-32-32 0 0 32z m-48-128c9 0 16 7 16 16l0 48 32 0 0-48c0-9 7-16 16-16 22 0 40-18 40-40l0-56-144 0 0 56c0 22 18 40 40 40z m104-224l-144 0 0 96 144 0z m-144-96l0 64 144 0 0-64z"/>
<glyph glyph-name="bulb-2" unicode="&#57358;" d="M424 344c0 93-75 168-168 168-93 0-168-75-168-168 0-50 22-97 60-129 1-1 2-1 3-2 26-18 41-43 41-69l0-80c0-9 7-16 16-16l0-16c0-18 14-32 32-32l32 0c18 0 32 14 32 32l0 16c9 0 16 7 16 16l0 80c0 26 15 51 41 69 1 1 2 1 3 2 38 32 60 79 60 129z m-200-264l0 48 64 0 0-48z m48-48l-32 0 0 16 32 0z m17 128l-66 0c-5 30-24 57-52 78-1 0-1 0-1 0-32 26-50 65-50 106 0 75 61 136 136 136 75 0 136-61 136-136 0-41-18-80-50-106 0 0 0 0-1 0-28-20-47-48-52-78z"/>
<glyph glyph-name="calendar-month" unicode="&#57359;" d="M117 162c0-9-1-15-4-19-2-3-7-5-13-5-2 0-5 0-7 0-2 1-4 1-6 2l0-29c6-1 12-2 19-2 16 0 28 5 36 14 8 10 12 24 12 42l0 124-37 0 0-127z m121 98c-19 0-35-3-47-9l11-25c12 6 21 8 29 8 9 0 13-4 13-13l0-1-18-1c-15-1-26-4-34-9-8-6-12-14-12-26 0-10 3-19 9-25 6-6 14-9 24-9 8 0 14 1 19 4 6 2 11 6 16 12l0 0 7-14 26 0 0 70c0 12-4 21-11 28-8 7-19 10-32 10z m6-69c0-4-1-8-4-11-4-3-7-4-12-4-7 0-10 3-10 10 0 8 6 13 18 13l8 0 0-8z m133 69c-7 0-14-1-19-4-6-2-10-6-13-11l-2 0-5 13-28 0 0-106 37 0 0 46c0 12 1 21 4 26 3 5 7 7 14 7 4 0 7-1 9-5 2-4 3-9 3-16l0-58 37 0 0 69c0 12-3 22-10 29-6 7-15 10-27 10z m-193 180c0-13-11-24-24-24-13 0-24 11-24 24 0 13 11 24 24 24 13 0 24-11 24-24z m192 0c0-13-11-24-24-24-13 0-24 11-24 24 0 13 11 24 24 24 13 0 24-11 24-24z m56 72l-352 0c-44 0-80-36-80-80l0-352c0-44 36-80 80-80l352 0c44 0 80 36 80 80l0 352c0 44-36 80-80 80z m-352-32l352 0c26 0 48-22 48-48l0-32-448 0 0 32c0 26 22 48 48 48z m352-448l-352 0c-26 0-48 22-48 48l0 288 448 0 0-288c0-26-22-48-48-48z"/>
<glyph glyph-name="calendar-date" unicode="&#57360;" d="M184 440c0-13-11-24-24-24-13 0-24 11-24 24 0 13 11 24 24 24 13 0 24-11 24-24z m192 0c0-13-11-24-24-24-13 0-24 11-24 24 0 13 11 24 24 24 13 0 24-11 24-24z m-48-268c24 21 48 41 48 66 0 36-29 66-64 66-35 0-64-30-64-66 0-9 7-16 16-16 9 0 16 7 16 16 0 19 14 34 32 34 18 0 32-15 32-34 0-10-21-28-37-42-28-23-59-50-59-84 0-9 7-16 16-16l96 0c9 0 16 7 16 16 0 9-7 16-16 16l-75 0c8 15 26 30 43 44z m104 340l-352 0c-44 0-80-36-80-80l0-352c0-44 36-80 80-80l352 0c44 0 80 36 80 80l0 352c0 44-36 80-80 80z m-352-32l352 0c26 0 48-22 48-48l0-32-448 0 0 32c0 26 22 48 48 48z m352-448l-352 0c-26 0-48 22-48 48l0 288 448 0 0-288c0-26-22-48-48-48z m-248 64c-9 0-16 7-16 16l0 137-21-20c-6-7-16-7-22 0-7 6-7 16 0 22l48 48c4 5 11 6 17 4 6-3 10-9 10-15l0-176c0-9-7-16-16-16z"/>
<glyph glyph-name="calendar-date-1" unicode="&#57361;" d="M464 448l-64 0 0 16c0 9-7 16-16 16-9 0-16-7-16-16l0-16-224 0 0 16c0 9-7 16-16 16-9 0-16-7-16-16l0-16-64 0c-26 0-48-22-48-48l0-320c0-26 22-48 48-48l416 0c26 0 48 22 48 48l0 320c0 26-22 48-48 48z m16-368c0-9-7-16-16-16l-416 0c-9 0-16 7-16 16l0 320c0 9 7 16 16 16l64 0 0-16c0-9 7-16 16-16 9 0 16 7 16 16l0 16 224 0 0-16c0-9 7-16 16-16 9 0 16 7 16 16l0 16 64 0c9 0 16-7 16-16z m-64 272l-64 0c-9 0-16-7-16-16l0-64c0-9 7-16 16-16l64 0c9 0 16 7 16 16l0 64c0 9-7 16-16 16z m-16-64l-32 0 0 32 32 0z m-112 64l-64 0c-9 0-16-7-16-16l0-64c0-9 7-16 16-16l64 0c9 0 16 7 16 16l0 64c0 9-7 16-16 16z m-16-64l-32 0 0 32 32 0z m-112 64l-64 0c-9 0-16-7-16-16l0-64c0-9 7-16 16-16l64 0c9 0 16 7 16 16l0 64c0 9-7 16-16 16z m256-128l-64 0c-9 0-16-7-16-16l0-64c0-9 7-16 16-16l64 0c9 0 16 7 16 16l0 64c0 9-7 16-16 16z m-16-64l-32 0 0 32 32 0z m-112 64l-64 0c-9 0-16-7-16-16l0-64c0-9 7-16 16-16l64 0c9 0 16 7 16 16l0 64c0 9-7 16-16 16z m-16-64l-32 0 0 32 32 0z m-112 64l-64 0c-9 0-16-7-16-16l0-64c0-9 7-16 16-16l64 0c9 0 16 7 16 16l0 64c0 9-7 16-16 16z m-16-64l-32 0 0 32 32 0z"/>
<glyph glyph-name="calendar" unicode="&#57362;" d="M464 448l-64 0 0 16c0 9-7 16-16 16-9 0-16-7-16-16l0-16-224 0 0 16c0 9-7 16-16 16-9 0-16-7-16-16l0-16-64 0c-26 0-48-22-48-48l0-320c0-26 22-48 48-48l416 0c26 0 48 22 48 48l0 320c0 26-22 48-48 48z m16-368c0-9-7-16-16-16l-416 0c-9 0-16 7-16 16l0 320c0 9 7 16 16 16l64 0 0-16c0-9 7-16 16-16 9 0 16 7 16 16l0 16 224 0 0-16c0-9 7-16 16-16 9 0 16 7 16 16l0 16 64 0c9 0 16-7 16-16z m-64 272l-64 0c-9 0-16-7-16-16l0-64c0-9 7-16 16-16l64 0c9 0 16 7 16 16l0 64c0 9-7 16-16 16z m-16-64l-32 0 0 32 32 0z m-112 64l-64 0c-9 0-16-7-16-16l0-64c0-9 7-16 16-16l64 0c9 0 16 7 16 16l0 64c0 9-7 16-16 16z m-16-64l-32 0 0 32 32 0z m-112 64l-64 0c-9 0-16-7-16-16l0-64c0-9 7-16 16-16l64 0c9 0 16 7 16 16l0 64c0 9-7 16-16 16z m-16-64l-32 0 0 32 32 0z m272-64l-64 0c-9 0-16-7-16-16l0-64c0-9 7-16 16-16l64 0c9 0 16 7 16 16l0 64c0 9-7 16-16 16z m-16-64l-32 0 0 32 32 0z m-112 64l-64 0c-9 0-16-7-16-16l0-64c0-9 7-16 16-16l64 0c9 0 16 7 16 16l0 64c0 9-7 16-16 16z m-16-64l-32 0 0 32 32 0z m-112 64l-64 0c-9 0-16-7-16-16l0-64c0-9 7-16 16-16l64 0c9 0 16 7 16 16l0 64c0 9-7 16-16 16z m-16-64l-32 0 0 32 32 0z"/>
<glyph glyph-name="calendar-1" unicode="&#57363;" d="M184 440c0-13-11-24-24-24-13 0-24 11-24 24 0 13 11 24 24 24 13 0 24-11 24-24z m192 0c0-13-11-24-24-24-13 0-24 11-24 24 0 13 11 24 24 24 13 0 24-11 24-24z m56 72l-352 0c-44 0-80-36-80-80l0-352c0-44 36-80 80-80l352 0c44 0 80 36 80 80l0 352c0 44-36 80-80 80z m-352-32l352 0c26 0 48-22 48-48l0-32-448 0 0 32c0 26 22 48 48 48z m352-448l-352 0c-26 0-48 22-48 48l0 288 448 0 0-288c0-26-22-48-48-48z m16 216c9 0 16 7 16 16 0 9-7 16-16 16l-56 0 0 56c0 9-7 16-16 16-9 0-16-7-16-16l0-56-88 0 0 56c0 9-7 16-16 16-9 0-16-7-16-16l0-56-88 0 0 56c0 9-7 16-16 16-9 0-16-7-16-16l0-56-64 0c-9 0-16-7-16-16 0-9 7-16 16-16l64 0 0-96-64 0c-9 0-16-7-16-16 0-9 7-16 16-16l64 0 0-56c0-9 7-16 16-16 9 0 16 7 16 16l0 56 88 0 0-56c0-9 7-16 16-16 9 0 16 7 16 16l0 56 88 0 0-56c0-9 7-16 16-16 9 0 16 7 16 16l0 56 56 0c9 0 16 7 16 16 0 9-7 16-16 16l-56 0 0 96z m-296-96l0 96 88 0 0-96z m208 0l-88 0 0 96 88 0z"/>
<glyph glyph-name="calculator" unicode="&#57364;" d="M384 368c0 0 0 0 0 0l-80 0c0 0 0 0 0 0-9 0-16-7-16-16 0-9 7-16 16-16l80 0c9 0 16 7 16 16 0 9-7 16-16 16z m0-168c0 0 0 0 0 0l-80 0c0 0 0 0 0 0-9 0-16-7-16-16 0-9 7-16 16-16l80 0c9 0 16 7 16 16 0 9-7 16-16 16z m0-48c0 0 0 0 0 0l-80 0c0 0 0 0 0 0-9 0-16-7-16-16 0-9 7-16 16-16l80 0c9 0 16 7 16 16 0 9-7 16-16 16z m-184 216c0 0 0 0 0 0l-24 0 0 24c0 9-7 16-16 16-9 0-16-7-16-16l0-24-24 0c0 0 0 0 0 0-9 0-16-7-16-16 0-9 7-16 16-16l24 0 0-24c0-9 7-16 16-16 9 0 16 7 16 16l0 24 24 0c9 0 16 7 16 16 0 9-7 16-16 16z m0-165c-7 7-17 7-23 0l-17-17-17 17c0 0 0 0 0 0-6 7-16 7-23 0-6-6-6-16 0-22l17-17-17-17c-6-6-6-17 0-23 7-6 17-6 23 0l17 17 17-17c6-6 16-6 23 0 6 6 6 17 0 23 0 0 0 0 0 0l-17 17 17 17c6 6 6 16 0 22z m264 309l-416 0c-26 0-48-22-48-48l0-416c0-26 22-48 48-48l416 0c26 0 48 22 48 48l0 416c0 26-22 48-48 48z m16-464c0-9-7-16-16-16l-416 0c-9 0-16 7-16 16l0 416c0 9 7 16 16 16l416 0c9 0 16-7 16-16z"/>
<glyph glyph-name="cake" unicode="&#57365;" d="M176 496c0-9-7-16-16-16-9 0-16 7-16 16 0 9 7 16 16 16 9 0 16-7 16-16z m64 0c0-9-7-16-16-16-9 0-16 7-16 16 0 9 7 16 16 16 9 0 16-7 16-16z m64 0c0-9-7-16-16-16-9 0-16 7-16 16 0 9 7 16 16 16 9 0 16-7 16-16z m64 0c0-9-7-16-16-16-9 0-16 7-16 16 0 9 7 16 16 16 9 0 16-7 16-16z m128-272l-64 0 0 176c0 9-7 16-16 16l-48 0 0 32c0 9-7 16-16 16-9 0-16-7-16-16l0-32-32 0 0 32c0 9-7 16-16 16-9 0-16-7-16-16l0-32-32 0 0 32c0 9-7 16-16 16-9 0-16-7-16-16l0-32-32 0 0 32c0 9-7 16-16 16-9 0-16-7-16-16l0-32-48 0c-9 0-16-7-16-16l0-176-64 0c-9 0-16-7-16-16l0-192c0-9 7-16 16-16l480 0c9 0 16 7 16 16l0 192c0 9-7 16-16 16z m-96 160l0-60c-5 3-8 8-8 12 0 9-7 16-16 16-9 0-16-7-16-16 0-9-11-16-24-16-13 0-24 7-24 16 0 9-7 16-16 16-9 0-16-7-16-16 0-9-11-16-24-16-13 0-24 7-24 16 0 9-7 16-16 16-9 0-16-7-16-16 0-9-11-16-24-16-13 0-24 7-24 16 0 9-7 16-16 16-9 0-16-7-16-16 0-4-3-9-8-12l0 60z m-288-94c9 2 17 7 24 12 10-8 24-14 40-14 16 0 30 6 40 14 10-8 24-14 40-14 16 0 30 6 40 14 10-8 24-14 40-14 16 0 30 6 40 14 7-5 15-10 24-12l0-66-288 0z m-16-98l384 0 0-52c-5 3-8 8-8 12 0 9-7 16-16 16-9 0-16-7-16-16 0-9-11-16-24-16-13 0-24 7-24 16 0 9-7 16-16 16-9 0-16-7-16-16 0-9-11-16-24-16-13 0-24 7-24 16 0 9-7 16-16 16-9 0-16-7-16-16 0-9-11-16-24-16-13 0-24 7-24 16 0 9-7 16-16 16-9 0-16-7-16-16 0-9-11-16-24-16-13 0-24 7-24 16 0 9-7 16-16 16-9 0-16-7-16-16 0-9-11-16-24-16-13 0-24 7-24 16 0 9-7 16-16 16-9 0-16-7-16-16 0-4-3-9-8-12l0 52z m-64-160l0 74c9 2 17 7 24 12 10-8 24-14 40-14 16 0 30 6 40 14 10-8 24-14 40-14 16 0 30 6 40 14 10-8 24-14 40-14 16 0 30 6 40 14 10-8 24-14 40-14 16 0 30 6 40 14 10-8 24-14 40-14 16 0 30 6 40 14 7-5 15-10 24-12l0-74z"/>
<glyph glyph-name="butterfly" unicode="&#57366;" d="M506 431c-9 22-25 25-33 25-79 0-136-42-169-70-1 20-14 37-32 43 0 1 0 2 0 3 0 0 0 0 0 0 0 18 14 32 32 32 9 0 16 7 16 16 0 9-7 16-16 16-19 0-36-8-48-22-12 14-29 22-48 22-9 0-16-7-16-16 0-9 7-16 16-16 17 0 32-14 32-32 0 0 0 0 0 0 0-1 0-2 0-3-18-6-31-23-32-43-33 28-91 70-169 70-9 0-24-3-33-25-19-48 12-185 30-203 14-13 45-29 73-41-16-14-32-33-42-52-9-17 6-46 15-62 9-15 32-49 58-49 10 0 53 7 77 12 8-12 23-20 39-20 16 0 30 8 39 20 23-5 67-12 77-12 25 0 48 34 57 49 10 16 25 45 16 62-10 19-26 38-42 52 27 11 58 28 72 41 19 18 50 155 31 203z m-410-309c12 22 36 45 54 58 6 3 8 10 7 16-1 6-6 11-12 13-25 6-71 29-86 42-10 16-35 120-25 163 2 8 4 10 5 10 77 0 133-49 160-72 3-3 6-6 9-8l0-277c-20-4-59-11-68-11-12 2-44 48-44 66z m160-74c-9 0-16 7-16 16l0 320c0 9 7 16 16 16 9 0 16-7 16-16l0-320c0-9-7-16-16-16z m110 161c-6-2-11-7-12-13-1-6 2-13 7-16 18-13 43-36 55-58 0-18-33-64-44-66-9 0-49 7-68 11l0 277c2 2 5 5 8 8 27 23 83 72 161 72 0 0 0 0 0 0 0 0 2-2 4-10 11-43-15-147-25-163-14-13-60-36-86-42z"/>
<glyph glyph-name="candle-2" unicode="&#57367;" d="M408 160c-26 0-48-21-48-48 0-5 1-11 3-16l-51 0 0 256c0 9-7 16-16 16l-48 0 0 19c19 6 32 23 32 42 0 28-29 69-35 77-6 8-20 8-26 0-6-8-35-49-35-77 0-19 13-36 32-42l0-19-48 0c-9 0-16-7-16-16l0-256-80 0c-6 0-11-3-14-7-3-5-3-11 0-16l32-64c2-5 8-9 14-9l256 0c6 0 12 4 14 9l28 56c2 0 4-1 6-1 26 0 48 22 48 48 0 27-22 48-48 48z m-176 307c9-14 16-29 16-38 0-7-7-13-16-13-9 0-16 6-16 13 0 9 7 24 16 38z m-48-261l96 48 0-28-96-48z m96 130l0-46-96-48 0 94z m-96-194l96 48 0-94-96 0z m166-110l-236 0-16 32 268 0z m58 64c-9 0-16 8-16 16 0 9 7 16 16 16 9 0 16-7 16-16 0-8-7-16-16-16z"/>
<glyph glyph-name="cableway" unicode="&#57368;" d="M512 499c-2 8-10 14-19 13l-205-34c0 1 0 3 0 5-2 8-10 14-19 13l-48-8c0 0 0 0 0 0-7-2-13-8-13-16l0-8-195-32c-8-2-14-10-13-19 2-7 8-13 16-13 1 0 2 0 3 0l189 32 0-56c0-7 5-14 13-16l27-5 0-83-80 0c-44 0-80-36-80-80l0-112c0-44 36-80 80-80l176 0c44 0 80 36 80 80l0 112c0 44-36 80-80 80l-64 0 0 96c0 8-6 14-13 16l-27 5 0 48 259 43c8 2 14 10 13 19z m-216-323l0-48-80 0 0 48z m96 0l0-48-64 0 0 48z m-208-48l-64 0 0 48 64 0z m160-96l-176 0c-26 0-48 22-48 48l0 16 272 0 0-16c0-26-22-48-48-48z m45 176l-266 0c6 19 24 32 45 32l176 0c21 0 39-13 45-32z"/>
<glyph glyph-name="witch-hat" unicode="&#98;" d="M496 56l-61 0-164 422c-2 6-8 10-15 10-7 0-13-4-15-10l-164-422-61 0c-9 0-16-7-16-16 0-9 7-16 16-16l480 0c9 0 16 7 16 16 0 9-7 16-16 16z m-126 80l-98 0 0 32 85 0z m-114 292l89-228-73 0c0 9-7 16-16 16l-64 0c-9 0-16-7-16-16l-9 0z m-16-244l0-64-32 0 0 64z m-85-16l21 0 0-32-34 0z m-44-112l19 48 46 0c0-9 7-16 16-16l64 0c9 0 16 7 16 16l110 0 19-48z"/>
<glyph glyph-name="windsurf" unicode="&#57369;" d="M444 32l-136 0c-17 0-33 0-48 1 0 6 0 12 0 19l172 45c8 2 14 10 12 19l-5 21 2-1c1 0 2 0 3 0 7 0 14 5 16 13 1 8-4 17-13 19l-16 3-67 289c-2 6-7 10-13 12l-61 13c1 3 1 5 2 8 1 9-4 17-13 19-9 1-17-4-19-13-14-75-24-171-28-285l-9 2c-8 1-17-4-19-13-1-8 4-17 13-19l13-3c-1-37-2-75-2-116 0-1 0-2 0-2 0-10 0-19 0-29-62 4-104 14-155 29-9 3-18-2-20-10-3-9 2-18 10-20 75-23 128-33 245-33l136 0c9 0 16 7 16 16 0 9-7 16-16 16z m-159 422l50-11 61-264-133 28c4 96 11 178 22 247z m119-310l5-20-149-39c1 31 1 61 2 90z"/>
<glyph glyph-name="wine" unicode="&#57370;" d="M400 496c0 9-7 16-16 16l-256 0c-9 0-16-7-16-16l0-176 0 0 0 0c0-74 56-135 128-143l0-145-64 0c-9 0-16-7-16-16 0-9 7-16 16-16l160 0c9 0 16 7 16 16 0 9-7 16-16 16l-64 0 0 145c72 8 128 69 128 143l0 0 0 0z m-32-16l0-128-224 0 0 128z m0-160c0-62-50-112-112-112-62 0-112 50-112 112l0 0z"/>
<glyph glyph-name="wind-rain" unicode="&#57371;" d="M16 320l192 0c0 0 0 0 0 0 44 0 80 36 80 80 0 44-36 80-80 80-44 0-80-36-80-80 0-9 7-16 16-16 9 0 16 7 16 16 0 26 22 48 48 48 26 0 48-22 48-48 0-26-21-48-48-48 0 0 0 0 0 0l-192 0c-9 0-16-7-16-16 0-9 7-16 16-16z m496 48c0 53-43 96-96 96-53 0-96-43-96-96 0-9 7-16 16-16 9 0 16 7 16 16 0 35 29 64 64 64 35 0 64-29 64-64 0-35-29-64-64-64 0 0 0 0 0 0l-400 0c-9 0-16-7-16-16 0-9 7-16 16-16l369 0c-3-5-6-10-10-16l-359 0c-9 0-16-7-16-16 0-9 7-16 16-16l340 0c-19-34-36-72-36-100 0-51 43-92 96-92 53 0 96 41 96 92 0 45-44 116-68 152 39 12 68 49 68 92z m-96-304c-35 0-64 27-64 60 0 34 39 99 64 136 25-37 64-102 64-136 0-33-29-60-64-60z"/>
<glyph glyph-name="wind-hail" unicode="&#57372;" d="M400 256c0 0 0 0 0 0l-384 0c-9 0-16-7-16-16 0-9 7-16 16-16l384 0c0 0 0 0 0 0 27 0 48-22 48-48 0-26-22-48-48-48-9 0-16-7-16-16 0-9 7-16 16-16 44 0 80 36 80 80 0 44-36 80-80 80z m-384 64l192 0c0 0 0 0 0 0 44 0 80 36 80 80 0 44-36 80-80 80-44 0-80-36-80-80 0-9 7-16 16-16 9 0 16 7 16 16 0 26 22 48 48 48 26 0 48-22 48-48 0-26-21-48-48-48 0 0 0 0 0 0l-192 0c-9 0-16-7-16-16 0-9 7-16 16-16z m400 144c-53 0-96-43-96-96 0-9 7-16 16-16 9 0 16 7 16 16 0 35 29 64 64 64 35 0 64-29 64-64 0-35-29-64-64-64 0 0 0 0 0 0l-400 0c-9 0-16-7-16-16 0-9 7-16 16-16l400 0c0 0 0 0 0 0 53 0 96 43 96 96 0 53-43 96-96 96z m-384-288c0-9-7-16-16-16-9 0-16 7-16 16 0 9 7 16 16 16 9 0 16-7 16-16z m96 0c0-9-7-16-16-16-9 0-16 7-16 16 0 9 7 16 16 16 9 0 16-7 16-16z m96 0c0-9-7-16-16-16-9 0-16 7-16 16 0 9 7 16 16 16 9 0 16-7 16-16z m96 0c0-9-7-16-16-16-9 0-16 7-16 16 0 9 7 16 16 16 9 0 16-7 16-16z m-288-128c0-9-7-16-16-16-9 0-16 7-16 16 0 9 7 16 16 16 9 0 16-7 16-16z m96 0c0-9-7-16-16-16-9 0-16 7-16 16 0 9 7 16 16 16 9 0 16-7 16-16z m96 0c0-9-7-16-16-16-9 0-16 7-16 16 0 9 7 16 16 16 9 0 16-7 16-16z m96 0c0-9-7-16-16-16-9 0-16 7-16 16 0 9 7 16 16 16 9 0 16-7 16-16z m-48 64c0-9-7-16-16-16-9 0-16 7-16 16 0 9 7 16 16 16 9 0 16-7 16-16z m-96 0c0-9-7-16-16-16-9 0-16 7-16 16 0 9 7 16 16 16 9 0 16-7 16-16z m-96 0c0-9-7-16-16-16-9 0-16 7-16 16 0 9 7 16 16 16 9 0 16-7 16-16z"/>
<glyph glyph-name="wind" unicode="&#57373;" d="M400 224c0 0 0 0 0 0l-384 0c-9 0-16-7-16-16 0-9 7-16 16-16l384 0c0 0 0 0 0 0 27 0 48-22 48-48 0-26-22-48-48-48-26 0-48 22-48 48 0 9-7 16-16 16-9 0-16-7-16-16 0-44 36-80 80-80 44 0 80 36 80 80 0 44-36 80-80 80z m-384 64l192 0c0 0 0 0 0 0 44 0 80 36 80 80 0 44-36 80-80 80-44 0-80-36-80-80 0-9 7-16 16-16 9 0 16 7 16 16 0 26 22 48 48 48 26 0 48-22 48-48 0-26-21-48-48-48 0 0 0 0 0 0l-192 0c-9 0-16-7-16-16 0-9 7-16 16-16z m400 144c-53 0-96-43-96-96 0-9 7-16 16-16 9 0 16 7 16 16 0 35 29 64 64 64 35 0 64-29 64-64 0-35-29-64-64-64 0 0 0 0 0 0l-400 0c-9 0-16-7-16-16 0-9 7-16 16-16l400 0c0 0 0 0 0 0 53 0 96 43 96 96 0 53-43 96-96 96z"/>
<glyph glyph-name="wifi" unicode="&#57374;" d="M256 144c-26 0-48-21-48-48 0-26 22-48 48-48 26 0 48 22 48 48 0 27-22 48-48 48z m0-64c-9 0-16 8-16 16 0 9 7 16 16 16 9 0 16-7 16-16 0-8-7-16-16-16z m-194 237c-7-6-8-16-2-23 5-7 16-8 22-2 96 81 252 81 348 0 3-2 6-4 10-4 5 0 9 2 12 6 6 7 5 17-2 23-107 90-281 90-388 0z m444 64c-138 111-362 111-500 0-7-6-8-16-2-23 5-7 15-8 22-2 127 102 333 102 460 0 3-2 6-4 10-4 5 0 9 2 12 6 6 7 5 17-2 23z m-396-128c-7-6-8-16-2-23 6-7 16-8 22-2 70 59 182 59 252 0 3-2 6-4 10-4 5 0 9 2 12 6 6 7 5 17-2 23-80 68-212 68-292 0z m47-65c-6-5-7-16-1-22 6-7 16-8 23-2 42 38 112 38 154 0 3-2 7-4 11-4 4 0 9 2 12 6 6 6 5 17-1 22-55 48-143 48-198 0z"/>
<glyph glyph-name="whiskey" unicode="&#57375;" d="M447 322c-5 46-47 174-48 179-3 7-9 11-16 11l-254 0c-7 0-13-4-16-11-1-5-43-133-48-179-5-46 10-91 42-128 34-37 83-61 133-65l0-97-64 0c-9 0-16-7-16-16 0-9 7-16 16-16l160 0c9 0 16 7 16 16 0 9-7 16-16 16l-64 0 0 97c50 4 99 28 133 65 32 37 47 82 42 128z m-350-4c4 36 33 130 43 162l232 0c10-32 39-126 43-162 1-10 1-20 0-30l-318 0c-1 10-1 20 0 30z m284-102c-31-35-78-56-125-56-47 0-94 21-125 56-11 12-19 26-25 40l300 0c-6-14-14-28-25-40z"/>
<glyph glyph-name="wheat" unicode="&#57376;" d="M256 112c-9 0-16-7-16-16l0-80c0-9 7-16 16-16 9 0 16 7 16 16l0 80c0 9-7 16-16 16z m-10 276c3-3 6-4 10-4 4 0 7 1 10 4 19 15 30 37 30 60 0 23-11 45-30 60-6 5-14 5-20 0-19-15-30-37-30-60 0-23 11-45 30-60z m10 85c5-8 8-16 8-25 0-9-3-17-8-25-5 8-8 16-8 25 0 9 3 17 8 25z m4-151c1-7 7-13 14-14 3 0 6-1 9-1 21 0 41 8 55 22 16 17 24 40 22 64-1 8-7 14-15 15-24 2-47-6-64-22-16-16-24-40-21-64z m44 41c6 7 14 11 23 12-1-9-5-17-12-23-6-6-14-10-23-12 2 9 6 17 12 23z m41-51c-24 2-47-6-64-22-16-16-24-40-21-64 1-7 7-13 14-14 3 0 6-1 9-1 21 0 41 8 55 22 16 17 24 40 22 64-1 8-7 14-15 15z m-30-56c-6-6-14-10-23-12 2 9 6 17 12 23 6 7 14 11 23 12-1-9-5-17-12-23z m30-40c-24 2-47-6-64-22-16-16-24-40-21-64 1-7 7-13 14-14 3 0 6-1 9-1 21 0 41 8 55 22 16 17 24 40 22 64-1 8-7 14-15 15z m-30-56c-6-6-14-10-23-12 2 9 6 17 12 23 6 7 14 11 23 12-1-9-5-17-12-23z m-86 147c3 0 6 1 9 1 7 1 13 7 14 14 3 24-5 48-21 64-17 16-40 24-64 22-8-1-14-7-15-15-2-24 6-47 22-64 14-14 34-22 55-22z m-21 56c6-6 10-14 12-23-9 2-17 6-23 12-7 6-11 14-12 23 9-1 17-5 23-12z m21-152c3 0 6 1 9 1 7 1 13 7 14 14 3 24-5 48-21 64-17 16-40 24-64 22-8-1-14-7-15-15-2-24 6-47 22-64 14-14 34-22 55-22z m-21 56c6-6 10-14 12-23-9 2-17 6-23 12-7 6-11 14-12 23 9-1 17-5 23-12z m44-137c3 24-5 48-21 64-17 16-40 24-64 22-8-1-14-7-15-15-2-24 6-47 22-64 14-14 34-22 55-22 3 0 6 1 9 1 7 1 13 7 14 14z m-55 30c-7 6-11 14-12 23 9-1 17-5 23-12 6-6 10-14 12-23-9 2-17 6-23 12z"/>
<glyph glyph-name="wheelchair-1" unicode="&#57377;" d="M509 161c-5 7-15 9-22 4l-11-7-87 116c0 0-1 0-1 0 0 1-1 1-1 2 0 0-1 0-1 1-1 0-1 0-2 1 0 0 0 0-1 0 0 0-1 1-1 1-1 0-1 0-2 0 0 0-1 1-1 1-1 0-1 0-2 0 0 0-1 0-1 0l-40 0 0 80c0 9-7 16-16 16l-160 0 0 96c0 9-7 16-16 16l-64 0c-9 0-16-7-16-16 0-9 7-16 16-16l48 0 0-145c-72-8-128-69-128-143 0-79 65-144 144-144 79 0 144 65 144 144l72 0 0-88c0-1 0-2 0-3 0-2 0-3 0-5 0-26 22-48 48-48 26 0 48 22 48 48 0 26-22 48-48 48-6 0-11-1-16-3l0 99 67-90c1 0 1 0 1-1 1 0 1-1 2-1 0-1 1-1 1-1 1-1 1-1 2-1 1-1 1-1 2-1 1 0 1 0 1-1 2 0 3 0 4 0 2 0 3 0 5 1 0 0 1 0 1 0 1 1 2 1 3 2l24 16c7 5 9 15 4 22z m-205 183l0-64-70 0c-20 17-46 28-74 31l0 33z m-160-288c-62 0-112 50-112 112 0 62 50 112 112 112 62 0 112-50 112-112 0-62-50-112-112-112z m140 144c-4 17-11 34-20 48l96 0 0-48z m124-112c9 0 16-7 16-16 0-9-7-16-16-16-9 0-16 7-16 16 0 9 7 16 16 16z"/>
<glyph glyph-name="wheelchair-2" unicode="&#57378;" d="M507 163c-6 7-16 7-22 0l-30-29-93 78c0 0 0 1 0 1-1 0-1 0-2 1 0 0-1 0-1 0-1 1-1 1-2 1 0 0 0 0-1 0 0 1-1 1-2 1 0 0-1 0-1 0 0 0-1 0-1 0l-128 0 0 64 128 0c9 0 16 7 16 16 0 9-7 16-16 16l-128 0 0 51c32 9 56 38 56 73 0 42-34 76-76 76-42 0-76-34-76-76 0-38 28-69 64-75l0-161c0-9 7-16 16-16l138 0 100-84c0 0 0-1 1-1 0 0 0 0 1-1 0 0 1 0 1 0 1-1 1-1 1-1 1 0 2 0 2 0 0-1 1-1 1-1 1 0 2 0 3 0l0 0c1 0 2 0 3 0 1 0 1 1 1 1 1 0 2 0 2 0 1 1 1 1 2 1 0 0 1 1 1 1 1 0 1 1 1 1 1 0 1 0 1 1l40 40c7 6 7 16 0 22z m-347 273c0 24 20 44 44 44 24 0 44-20 44-44 0-24-20-44-44-44-24 0-44 20-44 44z m224-319c-7 5-17 3-22-4-33-51-89-81-150-81-99 0-180 81-180 180 0 61 30 117 81 150 7 5 9 15 4 22-5 8-14 10-22 5-59-39-95-106-95-177 0-117 95-212 212-212 71 0 138 36 177 95 5 8 3 17-5 22z"/>
<glyph glyph-name="user-2" unicode="&#57379;" d="M272 240c0-9-7-16-16-16-9 0-16 7-16 16 0 9 7 16 16 16 9 0 16-7 16-16z m0-48c0-9-7-16-16-16-9 0-16 7-16 16 0 9 7 16 16 16 9 0 16-7 16-16z m0-48c0-9-7-16-16-16-9 0-16 7-16 16 0 9 7 16 16 16 9 0 16-7 16-16z m0-48c0-9-7-16-16-16-9 0-16 7-16 16 0 9 7 16 16 16 9 0 16-7 16-16z m-16 240c49 0 88 39 88 88 0 49-39 88-88 88-49 0-88-39-88-88 0-49 39-88 88-88z m0 144c31 0 56-25 56-56 0-31-25-56-56-56-31 0-56 25-56 56 0 31 25 56 56 56z m0-160c-97 0-176-79-176-176 0-9 7-16 16-16l64 0 0-112c0-9 7-16 16-16l160 0c9 0 16 7 16 16l0 112 64 0c9 0 16 7 16 16 0 97-79 176-176 176z m80-160c-9 0-16-7-16-16l0-112-128 0 0 112c0 9-7 16-16 16l-63 0c8 72 69 128 143 128 74 0 135-56 143-128z"/>
<glyph glyph-name="user" unicode="&#57380;" d="M256 336c49 0 88 39 88 88 0 49-39 88-88 88-49 0-88-39-88-88 0-49 39-88 88-88z m0 144c31 0 56-25 56-56 0-31-25-56-56-56-31 0-56 25-56 56 0 31 25 56 56 56z m0-160c-97 0-176-79-176-176 0-9 7-16 16-16l64 0 0-112c0-9 7-16 16-16l160 0c9 0 16 7 16 16l0 112 64 0c9 0 16 7 16 16 0 97-79 176-176 176z m80-160c-9 0-16-7-16-16l0-112-128 0 0 112c0 9-7 16-16 16l-63 0c8 72 69 128 143 128 74 0 135-56 143-128z"/>
<glyph glyph-name="user-1" unicode="&#57381;" d="M240 408c0-9-7-16-16-16-9 0-16 7-16 16 0 9 7 16 16 16 9 0 16-7 16-16z m64 0c0-9-7-16-16-16-9 0-16 7-16 16 0 9 7 16 16 16 9 0 16-7 16-16z m-48-136c66 0 120 54 120 120 0 66-54 120-120 120-66 0-120-54-120-120 0-66 54-120 120-120z m0 208c49 0 88-39 88-88 0-49-39-88-88-88-49 0-88 39-88 88 0 49 39 88 88 88z m0-240c-115 0-208-93-208-208l0-16c0-9 7-16 16-16l384 0c9 0 16 7 16 16l0 16c0 115-93 208-208 208z m-176-208c0 0 0 0 0 0 0 97 79 176 176 176 97 0 176-79 176-176 0 0 0 0 0 0z"/>
<glyph glyph-name="user-3" unicode="&#57382;" d="M272 144c0-9-7-16-16-16-9 0-16 7-16 16 0 9 7 16 16 16 9 0 16-7 16-16z m0-48c0-9-7-16-16-16-9 0-16 7-16 16 0 9 7 16 16 16 9 0 16-7 16-16z m-16 240c49 0 88 39 88 88 0 49-39 88-88 88-49 0-88-39-88-88 0-49 39-88 88-88z m0 144c31 0 56-25 56-56 0-31-25-56-56-56-31 0-56 25-56 56 0 31 25 56 56 56z m0-160c-97 0-176-79-176-176 0-9 7-16 16-16l64 0 0-112c0-9 7-16 16-16l160 0c9 0 16 7 16 16l0 112 64 0c9 0 16 7 16 16 0 97-79 176-176 176z m48-40l-48-43-48 43c15 5 31 8 48 8 17 0 33-3 48-8z m32-120c-9 0-16-7-16-16l0-112-128 0 0 112c0 9-7 16-16 16l-63 0c5 44 29 81 64 104l68-60c3-3 7-4 11-4 4 0 8 1 11 4l68 60c35-23 59-60 64-104z"/>
<glyph glyph-name="users" unicode="&#57383;" d="M192 336c49 0 88 39 88 88 0 49-39 88-88 88-49 0-88-39-88-88 0-49 39-88 88-88z m0 144c31 0 56-25 56-56 0-31-25-56-56-56-31 0-56 25-56 56 0 31 25 56 56 56z m127-112c-4 0-8 0-12 1-8 2-17-3-19-12-1-9 4-17 13-19 6-1 12-2 18-2 49 0 88 39 88 88 0 49-39 88-88 88-6 0-12-1-18-2-9-2-14-10-13-19 2-9 11-14 19-12 4 1 8 1 12 1 31 0 56-25 56-56 0-31-25-56-56-56z m49-224c0 97-79 176-176 176-97 0-176-79-176-176 0-9 7-16 16-16l64 0 0-112c0-9 7-16 16-16l160 0c9 0 16 7 16 16l0 112 64 0c9 0 16 7 16 16z m-96 16c-9 0-16-7-16-16l0-112-128 0 0 112c0 9-7 16-16 16l-63 0c8 72 69 128 143 128 74 0 135-56 143-128z m73 158c-9 1-17-5-18-14-2-8 4-16 13-18 66-9 115-61 122-126l-63 0c-9 0-16-7-16-16l0-112-48 0c-9 0-16-7-16-16 0-9 7-16 16-16l64 0c9 0 16 7 16 16l0 112 64 0c9 0 16 7 16 16 0 88-63 161-150 174z"/>
<glyph glyph-name="videocamera-1" unicode="&#57384;" d="M272 248l-160 0c-26 0-48-22-48-48 0-26 22-48 48-48 26 0 48 22 48 48 0 6-1 11-3 16l70 0c-2-5-3-10-3-16 0-26 22-48 48-48 26 0 48 22 48 48 0 26-22 48-48 48z m-144-48c0-9-7-16-16-16-9 0-16 7-16 16 0 9 7 16 16 16 9 0 16-7 16-16z m144-16c-9 0-16 7-16 16 0 9 7 16 16 16 9 0 16-7 16-16 0-9-7-16-16-16z m232 126c-4 3-10 3-15 0l-105-52 0 22c0 26-22 48-48 48l-64 0 0 56 16 0 0-8c0-9 7-16 16-16l96 0c9 0 16 7 16 16l0 48c0 9-7 16-16 16l-96 0c-9 0-16-7-16-16l0-8-32 0c-9 0-16-7-16-16l0-72-32 0 0 48c0 9-7 16-16 16l-176 0c-9 0-16-7-16-16 0-9 7-16 16-16l160 0 0-32-128 0c-26 0-48-22-48-48l0-160c0-26 22-48 48-48l288 0c26 0 48 22 48 48l0 22 105-52c2-1 5-2 7-2 3 0 6 1 8 2 5 3 8 8 8 14l0 192c0 6-3 11-8 14z m-184 98l64 0 0-16-64 0z m16-304l-288 0c-9 0-16 7-16 16l0 160c0 9 7 16 16 16l288 0c9 0 16-7 16-16l0-48c0 0 0 0 0 0l0-64c0 0 0 0 0 0l0-48c0-9-7-16-16-16z m144 26l-96 48 0 44 96 48z"/>
</font>
</defs>
</svg>
